<?xml version="1.0" encoding="UTF-8" standalone="no"?>
<!DOCTYPE svg  PUBLIC '-//W3C//DTD SVG 1.1//EN'  'http://www.w3.org/Graphics/SVG/1.1/DTD/svg11.dtd'>
<svg xmlns="http://www.w3.org/2000/svg">
<defs>
<font id="MyriadPro-Regular" horiz-adv-x="513">
<font-face underline-position="-50" font-weight="400" descent="-200" panose-1="2 11 5 3 3 4 3 2 2 4" units-per-em="1000" unicode-range="U+0020-25CA" bbox="-157 -250 1126 878" x-height="484" underline-thickness="50" font-family="MyriadPro" ascent="800" cap-height="674"/>
<missing-glyph horiz-adv-x="1000"/>
<glyph glyph-name=".notdef" horiz-adv-x="1000"/>
<glyph glyph-name=".null" horiz-adv-x="0"/>
<glyph glyph-name="nonmarkingreturn" horiz-adv-x="333"/>
<glyph glyph-name="space" horiz-adv-x="212" unicode=" "/>
<glyph glyph-name="exclam" horiz-adv-x="230" unicode="!" d="M115 -11q-26 0 -42.5 17.5t-16.5 44.5t16.5 44.5t42.5 17.5q27 0 43 -17.5t16 -44.5t-16 -44.5t-43 -17.5zM149 194h-68l-14 480h96z"/>
<glyph glyph-name="quotedbl" horiz-adv-x="337" unicode='&quot;' d="M200 685h87l-17 -240h-53zM51 685h87l-17 -240h-54z"/>
<glyph glyph-name="numbersign" horiz-adv-x="497" unicode="#" d="M153 0h-60l26 196h-82v59h91l19 145h-86v59h95l26 191h58l-25 -191h104l26 191h59l-25 -191h82v-59h-91l-18 -145h86v-59h-95l-26 -196h-60l26 196h-104zM188 255h104l19 145h-104z"/>
<glyph glyph-name="dollar" d="M281 -86h-63v101q-94 2 -153 44l24 67q65 -43 144 -43q53 0 86 27.5t33 70.5q0 40 -27.5 68t-85.5 51q-83 33 -124 72t-41 101t41 106t110 55v101h62v-97q75 -2 130 -35l-25 -66q-60 34 -126 34q-53 0 -79.5 -26t-26.5 -60q0 -37 27.5 -61.5t96.5 -52.5q80 -32 117.5 -75 t37.5 -108q0 -62 -42 -110t-116 -60v-104z" unicode="$"/>
<glyph glyph-name="percent" horiz-adv-x="792" unicode="%" d="M608 339q-41 0 -63 -42.5t-22 -108.5q0 -62 23 -102t62 -40q42 0 63 40t21 108q0 64 -20.5 104.5t-63.5 40.5zM611 392q69 0 109.5 -51t40.5 -143q0 -98 -44.5 -151.5t-110.5 -53.5q-64 0 -107.5 51t-44.5 144q0 95 45 149.5t112 54.5zM232 -11h-56l382 672h56zM184 608 q-40 0 -62 -41.5t-22 -105.5v-8q0 -61 22.5 -99.5t61.5 -38.5q42 0 63 40t21 108q0 64 -20.5 104.5t-63.5 40.5zM187 661q69 0 110 -51t41 -143q0 -98 -44.5 -151.5t-111.5 -53.5q-64 0 -107.5 51t-44.5 145q0 94 45 148.5t112 54.5z"/>
<glyph glyph-name="ampersand" horiz-adv-x="605" unicode="&amp;" d="M272 625q-40 0 -62.5 -28.5t-22.5 -69.5q0 -58 51 -121q57 32 84.5 62t27.5 70q0 35 -20 61t-58 26zM253 55q83 0 139 61q-126 138 -190 212q-87 -56 -87 -137q0 -58 39 -97t99 -39zM602 0h-104q-24 24 -63 66q-83 -77 -197 -77q-95 0 -151 55t-56 134q0 125 132 197v3 q-56 70 -56 141q0 66 46 116t125 50q64 0 106.5 -39.5t42.5 -103.5q0 -54 -34.5 -97.5t-113.5 -82.5v-3q118 -137 164 -188q45 69 65 197h80q-29 -168 -97 -249q17 -18 111 -119z"/>
<glyph glyph-name="quotesingle" horiz-adv-x="188" unicode="&apos;" d="M51 685h87l-17 -240h-54z"/>
<glyph glyph-name="parenleft" horiz-adv-x="284" unicode="(" d="M195 694h69q-126 -169 -126 -409q0 -229 126 -406h-69q-131 173 -131 406q1 236 131 409z"/>
<glyph glyph-name="parenright" horiz-adv-x="284" unicode=")" d="M88 -121h-68q126 176 126 409t-126 406h68q131 -168 131 -407q0 -234 -131 -408z"/>
<glyph glyph-name="asterisk" horiz-adv-x="415" unicode="*" d="M269 685l60 -34l-95 -125v-2l151 20v-68l-151 18v-2l96 -120l-63 -36l-60 140h-2l-65 -141l-57 36l95 122v2l-148 -19v68l147 -19v2l-94 122l61 35l62 -139h2z"/>
<glyph glyph-name="plus" horiz-adv-x="596" unicode="+" d="M266 532h64v-235h226v-60h-226v-237h-64v237h-226v60h226v235z"/>
<glyph glyph-name="comma" horiz-adv-x="207" unicode="," d="M79 -117l-63 -6q40 108 60 239l98 10q-17 -63 -45.5 -135t-49.5 -108z"/>
<glyph glyph-name="hyphen" horiz-adv-x="307" unicode="-" d="M30 303h247v-65h-247v65z"/>
<glyph glyph-name="period" horiz-adv-x="207" unicode="." d="M111 -11q-26 0 -42.5 18t-16.5 45q0 28 17 45.5t43 17.5t42.5 -17.5t16.5 -45.5t-16.5 -45.5t-43.5 -17.5z"/>
<glyph glyph-name="slash" horiz-adv-x="343" unicode="/" d="M66 -40h-67l279 725h68z"/>
<glyph glyph-name="zero" d="M257 593q-60 0 -96.5 -71t-36.5 -200q0 -125 35.5 -195t96.5 -70q66 0 99.5 71.5t33.5 199.5q0 124 -33 194.5t-99 70.5zM262 661q102 0 158.5 -86.5t56.5 -242.5q0 -165 -59 -254t-167 -89q-97 0 -155.5 87.5t-59.5 246.5q0 160 62 249t164 89z" unicode="0"/>
<glyph glyph-name="one" d="M236 0v568h-2l-113 -61l-17 67l142 76h75v-650h-85z" unicode="1"/>
<glyph glyph-name="two" d="M460 0h-415v54l69 67q135 129 188 200t54 140q0 55 -30.5 91t-98.5 36q-72 0 -138 -55l-28 62q78 66 184 66q98 0 148.5 -56t50.5 -133q0 -83 -53 -159.5t-171 -189.5l-52 -48v-2h292v-73z" unicode="2"/>
<glyph glyph-name="three" d="M42 33l24 68q64 -41 144 -41q76 0 111.5 38t35.5 86q0 65 -48.5 98.5t-119.5 33.5h-49v66h49q55 0 100 28.5t45 81.5q0 42 -28.5 70t-85.5 28q-70 0 -130 -43l-23 64q28 21 74.5 35.5t95.5 14.5q90 0 138 -45t48 -110q0 -51 -30.5 -91.5t-89.5 -61.5v-2q63 -13 104 -57 t41 -110q0 -83 -62.5 -139t-174.5 -56q-102 0 -169 44z" unicode="3"/>
<glyph glyph-name="four" d="M104 246h213v217q0 51 3 102h-3q-26 -49 -54 -96l-159 -221v-2zM400 0h-83v177h-302v58l290 415h95v-404h91v-69h-91v-177z" unicode="4"/>
<glyph glyph-name="five" d="M433 650v-74h-248l-25 -167q30 4 53 4q82 0 140 -35q93 -53 93 -167q0 -96 -68.5 -159t-173.5 -63q-100 0 -162 40l22 67q61 -36 139 -36q64 0 109 39t45 102q-1 66 -47 105t-140 39q-34 0 -90 -7l42 312h311z" unicode="5"/>
<glyph glyph-name="six" d="M264 57q57 0 92 43t35 113q0 69 -36.5 109t-97.5 40q-39 0 -73.5 -22t-52.5 -58q-10 -17 -10 -39q2 -83 39 -134.5t104 -51.5zM416 660v-72h-14q-27 0 -52 -4q-98 -16 -156 -80.5t-70 -150.5h3q57 75 157 75q87 0 141.5 -57.5t54.5 -152.5q0 -94 -59.5 -161.5 t-156.5 -67.5q-104 0 -167 75.5t-63 201.5q0 183 110 293q82 81 208 96q33 5 64 5z" unicode="6"/>
<glyph glyph-name="seven" d="M57 650h410v-58l-283 -592h-91l282 575v2h-318v73z" unicode="7"/>
<glyph glyph-name="eight" d="M258 598q-53 0 -83 -30t-30 -74q0 -87 124 -120q45 15 72 45.5t27 72.5q0 44 -27.5 75t-82.5 31zM257 53q59 0 94.5 32.5t35.5 83.5q0 56 -36 89t-107 53q-56 -16 -86.5 -51.5t-30.5 -82.5v-6q0 -50 35.5 -84t94.5 -34zM255 -11q-99 0 -158.5 51t-59.5 125q0 119 129 174 l-1 3q-103 49 -103 146q0 76 57 124.5t144 48.5q89 0 139 -47t50 -113q0 -101 -107 -152v-3q131 -52 131 -168q0 -84 -63.5 -136.5t-157.5 -52.5z" unicode="8"/>
<glyph glyph-name="nine" d="M256 594q-56 0 -92 -44.5t-36 -113.5q0 -61 34 -99.5t91 -38.5q43 0 76.5 18.5t51.5 49.5q8 13 8 32q0 88 -33.5 142t-99.5 54zM96 -10v72q5 -1 17 -1q10 0 54 4q81 11 136 63q69 62 86 173h-3q-57 -70 -153 -70q-86 0 -139 57t-53 142q0 95 62.5 163t159.5 68 q99 0 157 -74.5t58 -199.5q0 -197 -112 -305q-76 -74 -189 -87q-31 -5 -66 -5h-15z" unicode="9"/>
<glyph glyph-name="colon" horiz-adv-x="207" unicode=":" d="M111 -11q-26 0 -42.5 17.5t-16.5 44.5q0 28 17 45.5t43 17.5t42 -17.5t17 -45.5q0 -27 -16.5 -44.5t-43.5 -17.5zM111 342q-26 0 -42.5 17.5t-16.5 44.5q0 28 17 45.5t43 17.5t42 -17.5t17 -45.5q0 -27 -16.5 -44.5t-43.5 -17.5z"/>
<glyph glyph-name="semicolon" horiz-adv-x="207" unicode=";" d="M119 342q-26 0 -42.5 17.5t-16.5 44.5q0 28 16.5 45.5t42.5 17.5q27 0 43 -17.5t16 -45.5q0 -27 -16 -44.5t-43 -17.5zM78 -117l-61 -6q40 108 60 239l97 10q-18 -64 -46.5 -136t-49.5 -107z"/>
<glyph glyph-name="less" horiz-adv-x="596" unicode="&lt;" d="M66 239v54l464 239v-69l-391 -196v-2l391 -196v-69z"/>
<glyph glyph-name="equal" horiz-adv-x="596" unicode="=" d="M556 141h-516v60h516v-60zM556 337h-516v60h516v-60z"/>
<glyph glyph-name="greater" horiz-adv-x="596" unicode="&gt;" d="M530 294v-56l-464 -238v69l394 196v2l-394 196v69z"/>
<glyph glyph-name="question" horiz-adv-x="406" unicode="?" d="M178 -11q-26 0 -42.5 17.5t-16.5 44.5q0 28 17 45.5t43 17.5t42.5 -17.5t16.5 -45.5q0 -27 -16.5 -44.5t-43.5 -17.5zM219 191h-78l-2 26q-1 7 -1 20q0 77 63 153q70 82 70 137q0 39 -24.5 62t-70.5 24q-60 0 -101 -31l-24 63q55 40 143 40q81 0 124 -42.5t43 -104.5 q0 -46 -21 -84t-65 -90q-57 -67 -57 -135v-12z"/>
<glyph glyph-name="at" horiz-adv-x="737" unicode="@" d="M508 -21l16 -43q-76 -40 -178 -40q-127 0 -215 86t-88 226q0 159 101.5 271.5t263.5 112.5q129 0 210 -81.5t81 -207.5q0 -108 -52 -173t-126 -65q-31 0 -52.5 20.5t-21.5 60.5v7h-4q-52 -88 -141 -88q-45 0 -76.5 34.5t-31.5 91.5q0 96 67.5 166.5t169.5 70.5 q61 0 107 -21l-34 -181q-6 -33 -6 -55q0 -55 36 -57h1q41 0 74 50.5t33 132.5q0 111 -64 180t-178 69q-126 0 -213 -92t-87 -240q0 -123 72 -196.5t185 -73.5q89 0 151 35zM448 255l21 113q-23 7 -50 7q-66 0 -112.5 -53.5t-46.5 -126.5q0 -34 17 -55t49 -21q41 0 77 43 t45 93z"/>
<glyph glyph-name="A" horiz-adv-x="612" unicode="A" d="M203 280h203l-66 194q-14 41 -35 123h-2q-17 -70 -34 -122zM424 212h-239l-70 -212h-90l229 674h105l230 -674h-93z"/>
<glyph glyph-name="B" horiz-adv-x="542" unicode="B" d="M163 323v-257q23 -4 73 -4q75 0 124 31.5t49 99.5q0 65 -48.5 97.5t-125.5 32.5h-72zM163 606v-217h79q68 0 107 31.5t39 81.5q0 110 -148 110q-49 0 -77 -6zM76 2v663q66 14 159 14q124 0 185 -49q56 -42 56 -119q0 -49 -30.5 -89t-83.5 -59v-2q56 -14 97.5 -57 t41.5 -112q0 -80 -57 -135q-69 -63 -233 -63q-77 0 -135 8z"/>
<glyph glyph-name="C" horiz-adv-x="580" unicode="C" d="M529 91l18 -69q-64 -32 -178 -32q-147 0 -240 90t-93 251q0 158 97.5 256t254.5 98q103 0 160 -30l-21 -71q-58 28 -136 28q-120 0 -191.5 -73.5t-71.5 -204.5q0 -125 68.5 -198t190.5 -73q84 0 142 28z"/>
<glyph glyph-name="D" horiz-adv-x="666" unicode="D" d="M163 601v-532q28 -5 88 -5q139 0 213 74.5t74 211.5q1 122 -68.5 191t-204.5 69q-61 0 -102 -9zM76 2v663q93 14 185 14q183 0 273 -84q95 -87 95 -242q0 -167 -97 -262q-97 -97 -298 -97q-88 0 -158 8z"/>
<glyph glyph-name="E" horiz-adv-x="492" unicode="E" d="M425 388v-72h-262v-243h292v-73h-379v674h364v-73h-277v-213h262z"/>
<glyph glyph-name="F" horiz-adv-x="487" unicode="F" d="M76 0v674h363v-73h-276v-224h255v-72h-255v-305h-87z"/>
<glyph glyph-name="G" horiz-adv-x="646" unicode="G" d="M589 354v-324q-103 -37 -207 -37q-159 0 -252 89q-94 91 -94 251q1 154 99.5 251t265.5 97q104 0 168 -31l-21 -71q-65 29 -149 29q-124 0 -197.5 -72.5t-73.5 -198.5q0 -127 70.5 -199.5t189.5 -72.5q80 0 116 18v201h-137v70h222z"/>
<glyph glyph-name="H" horiz-adv-x="652" unicode="H" d="M76 674h87v-282h326v282h88v-674h-88v316h-326v-316h-87v674z"/>
<glyph glyph-name="I" horiz-adv-x="239" unicode="I" d="M76 674h87v-674h-87v674z"/>
<glyph glyph-name="J" horiz-adv-x="370" unicode="J" d="M214 230v444h87v-451q0 -234 -204 -234q-54 0 -93 16l13 71q33 -13 73 -13q63 0 93.5 36.5t30.5 130.5z"/>
<glyph glyph-name="K" horiz-adv-x="542" unicode="K" d="M76 0v674h87v-325h3q23 33 53 72l206 253h108l-244 -286l263 -388h-103l-222 331l-64 -74v-257h-87z"/>
<glyph glyph-name="L" horiz-adv-x="472" unicode="L" d="M76 0v674h87v-601h288v-73h-375z"/>
<glyph glyph-name="M" horiz-adv-x="804" unicode="M" d="M661 0l-17 296q-10 174 -10 272v19h-3q-34 -115 -85 -256l-119 -327h-66l-109 321q-53 159 -78 262h-2q-3 -132 -13 -298l-18 -289h-83l47 674h111l115 -326q46 -136 68 -227h3q22 89 71 227l120 326h111l42 -674h-85z"/>
<glyph glyph-name="N" horiz-adv-x="658" unicode="N" d="M158 0h-82v674h95l216 -341q73 -115 121 -219l2 1q-10 113 -10 277v282h82v-674h-88l-214 342q-83 132 -126 225l-3 -1q7 -119 7 -278v-288z"/>
<glyph glyph-name="O" horiz-adv-x="689" unicode="O" d="M345 614q-103 0 -159.5 -81.5t-56.5 -199.5q0 -113 58 -193t157 -80q100 0 158 80t58 200q0 110 -56.5 192t-158.5 82zM349 685q137 0 220 -95t83 -246q0 -168 -89 -261.5t-224 -93.5q-134 0 -218.5 95t-84.5 247q0 159 88 256.5t225 97.5z"/>
<glyph glyph-name="P" horiz-adv-x="532" unicode="P" d="M163 603v-262q27 -7 72 -7q80 0 124.5 37.5t44.5 106.5q0 65 -42.5 98.5t-116.5 33.5q-56 0 -82 -7zM76 0v666q78 13 167 13q127 0 189 -56q59 -51 59 -141t-52 -144q-69 -74 -206 -74q-46 0 -70 6v-270h-87z"/>
<glyph glyph-name="Q" horiz-adv-x="689" unicode="Q" d="M343 60q101 0 159 80t58 200q0 110 -56 192t-157 82q-105 0 -162 -82.5t-56 -199.5q-1 -112 57.5 -192t156.5 -80zM657 -26l-25 -73q-137 36 -258 78q-28 10 -41 10q-127 5 -212 95t-85 246q0 160 88 257.5t226 97.5q136 0 219 -95t83 -246q0 -126 -52.5 -209.5 t-139.5 -113.5v-4q108 -27 197 -43z"/>
<glyph glyph-name="R" horiz-adv-x="538" unicode="R" d="M163 604v-246h89q69 0 110.5 35t41.5 93q0 63 -41.5 94t-113.5 32q-58 0 -86 -8zM76 0v665q68 14 167 14q134 0 195 -55q53 -47 53 -128q0 -64 -35.5 -108.5t-91.5 -63.5v-3q74 -26 99 -136q37 -156 52 -185h-90q-14 24 -45 161q-15 70 -45.5 99.5t-89.5 31.5h-82v-292 h-87z"/>
<glyph glyph-name="S" horiz-adv-x="493" unicode="S" d="M42 33l22 73q71 -44 156 -44q66 0 103.5 31.5t37.5 83.5q0 47 -29 77.5t-98 56.5q-178 63 -178 191q0 80 60.5 131.5t157.5 51.5q91 0 149 -33l-24 -71q-59 32 -128 32q-63 0 -95 -30.5t-32 -70.5q0 -46 30.5 -74t103.5 -56q89 -34 130.5 -80t41.5 -118q0 -83 -61 -138.5 t-175 -55.5q-48 0 -96 12.5t-76 30.5z"/>
<glyph glyph-name="T" horiz-adv-x="497" unicode="T" d="M204 0v600h-205v74h499v-74h-206v-600h-88z"/>
<glyph glyph-name="U" horiz-adv-x="647" unicode="U" d="M75 674h88v-399q0 -108 43 -161.5t114 -53.5q78 0 121 53t43 162v399h88v-393q0 -148 -69.5 -220t-185.5 -72q-111 0 -176.5 69.5t-65.5 218.5v397z"/>
<glyph glyph-name="V" horiz-adv-x="558" unicode="V" d="M320 0h-96l-220 674h94l105 -332q51 -161 72 -252h2q21 88 77 251l114 333h93z"/>
<glyph glyph-name="W" horiz-adv-x="846" unicode="W" d="M277 0h-91l-171 674h92l80 -341q31 -131 50 -233h2q11 68 55 234l90 340h91l82 -342q36 -150 47 -231h2q13 70 54 233l89 340h89l-191 -674h-91l-85 351q-32 133 -44 220h-2q-19 -104 -52 -220z"/>
<glyph glyph-name="X" horiz-adv-x="571" unicode="X" d="M546 0h-101l-86 149q-52 84 -78 133h-2q-30 -61 -73 -134l-81 -148h-100l206 341l-198 333h101l89 -158q42 -73 62 -114h3q24 50 61 114l92 158h100l-205 -328z"/>
<glyph glyph-name="Y" horiz-adv-x="541" unicode="Y" d="M314 0h-88v286l-213 388h99l95 -186q40 -78 67 -139h2q16 37 68 139l97 186h99l-226 -387v-287z"/>
<glyph glyph-name="Z" horiz-adv-x="553" unicode="Z" d="M30 0v51l374 547v3h-342v73h455v-53l-372 -545v-3h377v-73h-492z"/>
<glyph glyph-name="bracketleft" horiz-adv-x="284" unicode="[" d="M265 -112h-183v797h183v-55h-115v-687h115v-55z"/>
<glyph glyph-name="backslash" horiz-adv-x="341" unicode="\" d="M342 -40h-68l-272 725h68z"/>
<glyph glyph-name="bracketright" horiz-adv-x="284" unicode="]" d="M19 686h183v-798h-183v55h115v688h-115v55z"/>
<glyph glyph-name="asciicircum" horiz-adv-x="596" unicode="^" d="M536 189h-70l-167 388h-2l-167 -388h-70l207 461h62z"/>
<glyph glyph-name="underscore" horiz-adv-x="500" unicode="_" d="M0 -75h500v-50h-500v50z"/>
<glyph glyph-name="grave" horiz-adv-x="300" unicode="`" d="M22 693h97l87 -143h-62z"/>
<glyph glyph-name="a" horiz-adv-x="482" unicode="a" d="M328 163v84h-14q-191 0 -191 -109q0 -41 23.5 -62.5t59.5 -21.5q44 0 74.5 23.5t42.5 57.5q5 15 5 28zM421 0h-80l-7 61h-3q-22 -31 -60.5 -51.5t-87.5 -20.5q-70 0 -109 41t-39 98q0 87 74.5 133.5t212.5 46.5h4v10q0 112 -110 112q-70 0 -126 -36l-20 58q66 43 159 43 q53 0 90.5 -17t57 -46.5t28 -62t8.5 -72.5v-181q0 -72 8 -116z"/>
<glyph glyph-name="b" horiz-adv-x="569" unicode="b" d="M160 281v-87q0 -12 4 -32q13 -46 49 -74.5t83 -28.5q68 0 107.5 51t39.5 135q0 77 -38 128.5t-106 51.5q-46 0 -83.5 -29.5t-50.5 -78.5q-5 -25 -5 -36zM145 0h-76q4 66 4 125v585h87v-304h2q51 89 165 89q90 0 147.5 -68.5t56.5 -178.5q0 -122 -64.5 -190.5 t-152.5 -68.5q-111 0 -162 91h-3z"/>
<glyph glyph-name="c" horiz-adv-x="448" unicode="c" d="M403 84l15 -66q-54 -28 -139 -28q-109 0 -175 68t-66 179q0 113 71.5 185t188.5 72q72 0 122 -25l-20 -68q-40 23 -102 23q-80 0 -125.5 -52t-45.5 -131q0 -83 47.5 -132t120.5 -49q53 0 108 24z"/>
<glyph glyph-name="d" horiz-adv-x="564" unicode="d" d="M403 203v84q0 22 -4 37q-10 44 -44.5 73t-82.5 29q-67 0 -106 -52.5t-39 -134.5q0 -77 37.5 -128t105.5 -51q45 0 81 28.5t48 76.5q4 16 4 38zM403 710h88v-585q0 -81 4 -125h-79l-4 84h-2q-21 -42 -64.5 -68.5t-100.5 -26.5q-89 0 -148 69t-59 179q0 116 63 187t154 71 q52 0 90 -21t56 -53h2v289z"/>
<glyph glyph-name="e" horiz-adv-x="501" unicode="e" d="M123 289h257q1 54 -27.5 98.5t-94.5 44.5q-61 0 -95 -44t-40 -99zM462 226h-340q1 -84 48 -126t118 -42q75 0 134 25l15 -63q-66 -30 -161 -30q-111 0 -174.5 66.5t-63.5 177.5q0 112 62 186.5t165 74.5q56 0 97.5 -22.5t62.5 -59t30.5 -73t9.5 -73.5q0 -14 -3 -41z"/>
<glyph glyph-name="f" horiz-adv-x="292" unicode="f" d="M169 0h-87v417h-68v67h68v23q0 116 56 169q46 45 118 45q41 0 75 -14l-12 -68q-24 11 -56 11q-94 0 -94 -140v-26h117v-67h-117v-417z"/>
<glyph glyph-name="g" horiz-adv-x="559" unicode="g" d="M399 206v87q0 25 -5 40q-13 41 -45 67t-78 26q-64 0 -104 -50t-40 -133q0 -75 37.5 -124.5t105.5 -49.5q41 0 74.5 24.5t47.5 65.5q7 21 7 47zM413 484h77q-4 -70 -4 -133v-281q0 -159 -69 -221q-62 -58 -176 -58q-101 0 -161 40l22 67q61 -38 142 -38q72 0 114 41 t42 128v54h-2q-49 -81 -154 -81q-89 0 -147.5 67.5t-58.5 168.5q0 117 65 187t153 70q107 0 151 -84h2z"/>
<glyph glyph-name="h" horiz-adv-x="555" unicode="h" d="M73 0v710h88v-302h2q22 39 63 62q43 25 90 25q28 0 54.5 -9.5t54 -31t44 -64.5t16.5 -102v-288h-88v278q0 64 -27 104t-85 40q-41 0 -73 -25t-45 -63q-6 -14 -6 -42v-292h-88z"/>
<glyph glyph-name="i" horiz-adv-x="234" unicode="i" d="M117 675q24 0 39 -15.5t15 -39.5q1 -23 -14.5 -38.5t-41.5 -15.5q-23 0 -38 15.5t-15 38.5t15.5 39t39.5 16zM161 0h-88v484h88v-484z"/>
<glyph glyph-name="j" horiz-adv-x="243" unicode="j" d="M129 675q24 0 38.5 -15.5t14.5 -39.5q1 -23 -14.5 -38.5t-40.5 -15.5q-24 0 -39 16t-15 38q0 24 15.5 39.5t40.5 15.5zM-36 -209l-9 69q67 5 96 37q19 22 26 59.5t7 122.5v405h88v-439q0 -140 -58 -199q-27 -27 -69 -41t-81 -14z"/>
<glyph glyph-name="k" horiz-adv-x="469" unicode="k" d="M160 710v-448h2q14 20 43 55l142 167h106l-187 -199l213 -285h-107l-167 232l-45 -50v-182h-87v710h87z"/>
<glyph glyph-name="l" horiz-adv-x="236" unicode="l" d="M73 0v710h88v-710h-88z"/>
<glyph glyph-name="m" horiz-adv-x="834" unicode="m" d="M73 0v353q0 78 -4 131h77l4 -78h3q52 89 152 89q48 0 84.5 -26.5t52.5 -70.5h2q21 39 54 63q45 34 107 34q27 0 52.5 -10t50.5 -31.5t40.5 -65t15.5 -103.5v-285h-86v274q0 149 -105 149q-36 0 -64 -23t-40 -57q-7 -21 -7 -44v-299h-86v290q0 60 -26 96.5t-75 36.5 q-39 0 -68.5 -26t-40.5 -62q-7 -18 -7 -43v-292h-86z"/>
<glyph glyph-name="n" horiz-adv-x="555" unicode="n" d="M73 0v353q0 78 -4 131h78l5 -80h2q20 38 62 64.5t98 26.5q28 0 55.5 -9.5t54.5 -31t44 -64t17 -101.5v-289h-88v279q0 64 -27 103.5t-85 39.5q-42 0 -74 -26t-44 -64q-6 -16 -6 -41v-291h-88z"/>
<glyph glyph-name="o" horiz-adv-x="549" unicode="o" d="M276 429q-73 0 -111 -55.5t-38 -132.5q0 -80 41.5 -133t105.5 -53q63 0 105 53.5t42 134.5q0 44 -14 84.5t-48 71t-83 30.5zM278 495q104 0 168.5 -69t64.5 -180q0 -125 -71.5 -191t-169.5 -66q-100 0 -166 68t-66 181q0 118 68 187.5t172 69.5z"/>
<glyph glyph-name="p" horiz-adv-x="569" unicode="p" d="M160 280v-83q0 -14 4 -36q12 -46 48.5 -74.5t83.5 -28.5q69 0 108 51t39 136q0 76 -38.5 128t-105.5 52q-46 0 -83 -30t-50 -79q-6 -22 -6 -36zM73 -198v524q0 66 -4 158h79l4 -83h2q57 94 172 94q89 0 147 -68.5t58 -177.5q0 -124 -64 -192t-156 -68q-48 0 -87.5 20 t-61.5 56h-2v-263h-87z"/>
<glyph glyph-name="q" horiz-adv-x="563" unicode="q" d="M403 197v91q0 22 -4 37q-10 42 -44 71t-82 29q-67 0 -106.5 -51.5t-39.5 -134.5q0 -77 37 -128.5t106 -51.5q43 0 77 25.5t49 70.5q7 21 7 42zM403 -198v273h-2q-21 -38 -61.5 -62t-96.5 -24q-87 0 -146 68.5t-59 176.5q0 126 66.5 193.5t152.5 67.5q106 0 149 -84h2 l3 73h83q-3 -62 -3 -133v-549h-88z"/>
<glyph glyph-name="r" horiz-adv-x="327" unicode="r" d="M73 0v333q0 91 -4 151h77l3 -95h4q16 49 53 77.5t81 28.5q13 0 25 -3v-83q-13 3 -30 3q-46 0 -77.5 -31t-40.5 -82q-4 -24 -4 -41v-258h-87z"/>
<glyph glyph-name="s" horiz-adv-x="396" unicode="s" d="M39 23l22 67q54 -35 116 -35q46 0 70 20t24 52q0 31 -20.5 51t-69.5 38q-128 46 -128 137q0 60 45.5 101t121.5 41q68 0 119 -30l-22 -64q-44 28 -99 28q-38 0 -59.5 -19t-21.5 -47q0 -29 20.5 -46t71.5 -36q65 -25 96 -59t31 -87q0 -65 -48 -105t-133 -40q-80 0 -136 33 z"/>
<glyph glyph-name="t" horiz-adv-x="331" unicode="t" d="M93 600l86 23v-139h126v-67h-126v-261q0 -94 66 -94q29 0 51 6l4 -66q-29 -12 -78 -12q-63 0 -95 37q-34 35 -34 126v264h-75v67h75v116z"/>
<glyph glyph-name="u" horiz-adv-x="551" unicode="u" d="M478 484v-352q0 -81 4 -132h-78l-5 79h-2q-21 -36 -61.5 -63t-98.5 -27q-31 0 -58.5 9.5t-53 32t-40.5 66t-15 104.5v283h88v-268q0 -154 108 -154q41 0 72 23.5t44 56.5q8 21 8 45v297h88z"/>
<glyph glyph-name="v" horiz-adv-x="481" unicode="v" d="M13 484h94l95 -272q26 -70 39 -124h3q13 46 41 124l94 272h92l-190 -484h-84z"/>
<glyph glyph-name="w" horiz-adv-x="736" unicode="w" d="M18 484h90l64 -246q27 -104 36 -154h3q11 49 43 153l79 247h74l75 -242q27 -88 43 -158h3q10 60 37 157l69 243h87l-156 -484h-80l-74 231q-29 91 -43 159h-2q-14 -69 -44 -160l-78 -230h-80z"/>
<glyph glyph-name="x" horiz-adv-x="463" unicode="x" d="M16 484h98l69 -104q20 -30 49 -79h3q11 19 48 80l68 103h95l-165 -234l170 -250h-100l-71 109q-20 30 -52 84h-2q-9 -17 -51 -84l-70 -109h-97l172 247z"/>
<glyph glyph-name="y" horiz-adv-x="471" unicode="y" d="M9 484h96l106 -286q19 -54 31 -99h2q1 3 12.5 41.5t18.5 59.5l96 284h93l-132 -345q-49 -129 -85.5 -197t-80.5 -106q-53 -47 -108 -57l-22 74q42 13 77 43q47 37 74 98q7 16 7 21q0 7 -6 23z"/>
<glyph glyph-name="z" horiz-adv-x="428" unicode="z" d="M18 0v51l219 285q10 12 63 75v2h-262v71h369l-1 -55l-216 -281q-26 -35 -62 -76v-2h283v-70h-393z"/>
<glyph glyph-name="braceleft" horiz-adv-x="284" unicode="{" d="M28 262v51q48 0 64.5 20.5t16.5 53.5q0 28 -8 84t-8 83q0 66 39 98.5t106 32.5h21v-55h-18q-79 0 -79 -86q0 -29 7 -71q7 -46 7 -79q0 -85 -72 -105v-2q72 -18 72 -106q0 -35 -7 -79t-7 -72q0 -87 79 -87h18v-55h-21q-145 0 -145 137q0 28 8 82t8 81q0 74 -81 74z"/>
<glyph glyph-name="bar" horiz-adv-x="239" unicode="|" d="M86 750h67v-1000h-67v1000z"/>
<glyph glyph-name="braceright" horiz-adv-x="284" unicode="}" d="M256 313v-51q-81 0 -81 -74q0 -27 8 -81t8 -82q0 -137 -145 -137h-21v55h17q80 1 80 87q0 14 -7 72q-8 48 -8 76q0 91 72 109v2q-72 20 -72 108q0 26 8 76q7 56 7 71q0 85 -79 86h-18v55h20q67 0 106.5 -32.5t39.5 -98.5q0 -27 -8 -83t-8 -84q0 -33 16.5 -53.5 t64.5 -20.5z"/>
<glyph glyph-name="asciitilde" horiz-adv-x="596" unicode="~" d="M108 210h-59v10q0 67 33.5 104t85.5 37q30 0 58.5 -9.5t82.5 -35.5q89 -42 125 -42q52 0 54 84h60v-13q0 -71 -33 -104.5t-82 -33.5q-50 0 -145 44q-6 3 -19.5 9.5t-19 9.5t-16.5 8t-17.5 7t-15.5 5t-16.5 4t-15.5 1q-57 0 -60 -85z"/>
<glyph glyph-name="uni00A0" horiz-adv-x="212" unicode=" "/>
<glyph glyph-name="exclamdown" horiz-adv-x="230" unicode="¡" d="M116 488q26 0 42 -17.5t16 -44.5t-16 -44.5t-43 -17.5q-26 0 -42.5 17.5t-16.5 44.5t17 44.5t43 17.5zM164 -198h-97l14 477h68z"/>
<glyph glyph-name="cent" d="M330 -14h-62v101q-91 11 -145 70q-56 63 -56 169q0 97 55 164.5t146 82.5v100h62v-98q61 0 109 -25l-20 -67q-42 25 -104 25q-72 0 -116 -51t-44 -127q0 -81 44 -128.5t112 -47.5q59 0 114 25l16 -63q-48 -26 -111 -29v-101z" unicode="¢"/>
<glyph glyph-name="sterling" d="M471 0h-415v50q51 26 82.5 73t31.5 102q0 37 -5 70h-103v63h93q-11 66 -11 108q0 88 54 141.5t138 53.5q69 0 109 -25l-20 -66q-36 20 -89 20q-56 0 -83 -34t-27 -91q0 -43 12 -107h144v-63h-136q3 -51 3 -52q0 -32 -7 -60q-16 -63 -69 -108v-2h298v-73z" unicode="£"/>
<glyph glyph-name="currency" d="M255 471q-54 0 -86.5 -40.5t-32.5 -100.5q0 -67 37 -103t81 -36q48 0 83.5 36t35.5 107q0 56 -31.5 96.5t-86.5 40.5zM256 534q69 0 116 -40l71 75l44 -46l-78 -71q35 -50 35 -117q0 -74 -35 -123l75 -74l-45 -44l-68 77q-44 -43 -117 -43q-71 0 -114 40l-67 -74l-43 44 l72 71q-37 48 -37 120q0 71 39 123l-75 71l44 46l69 -76q46 41 114 41z" unicode="¤"/>
<glyph glyph-name="yen" d="M292 0h-83v175h-155v50h155v72h-155v50h130l-168 303h94l104 -206q24 -51 40 -91h3q16 45 40 93l108 204h92l-179 -303h130v-50h-156v-72h156v-50h-156v-175z" unicode="¥"/>
<glyph glyph-name="brokenbar" horiz-adv-x="239" unicode="¦" d="M86 674h67v-350h-67v350zM86 174h67v-350h-67v350z"/>
<glyph glyph-name="section" horiz-adv-x="519" unicode="§" d="M418 650l-21 -57q-52 32 -120 32q-45 0 -74.5 -20.5t-29.5 -53.5q0 -36 29 -55t96 -41q79 -26 121 -61t42 -97q0 -71 -65 -121q38 -31 38 -88q0 -74 -56.5 -112t-133.5 -38q-100 0 -157 42l24 57q58 -41 132 -41q50 0 81 21.5t31 60.5q0 35 -26 57.5t-96 46.5 q-88 30 -131 64t-43 94q0 70 73 117q-35 28 -37 84q0 64 53 103t132 39t138 -33zM130 351q0 -28 24.5 -51t81.5 -44q88 -31 114 -48q38 27 38 77q0 62 -89 93q-101 38 -123 51q-46 -33 -46 -78z"/>
<glyph glyph-name="dieresis" horiz-adv-x="300" unicode="¨" d="M243 570q-22 0 -36 15t-14 36t14.5 36t35.5 15t35 -14.5t14 -36.5q0 -21 -14 -36t-35 -15zM58 570q-22 0 -36.5 15t-14.5 36t15 36t36 15t35 -14.5t14 -36.5q0 -21 -14 -36t-35 -15z"/>
<glyph glyph-name="copyright" horiz-adv-x="677" unicode="©" d="M474 493l-12 -39q-43 23 -97 23q-68 0 -104 -38.5t-36 -101.5q0 -61 37 -101t104 -40q61 0 101 26l12 -38q-47 -31 -123 -31q-85 0 -134 51.5t-49 129.5q0 83 56 134.5t135 51.5q36 0 67.5 -8.5t42.5 -18.5zM340 607q-108 0 -181 -78t-73 -192q0 -112 73 -189t181 -77 q106 0 178.5 77.5t72.5 191.5q0 112 -72.5 189.5t-178.5 77.5zM340 648q126 0 213.5 -90t87.5 -218q0 -129 -87.5 -219.5t-213.5 -90.5q-127 0 -215.5 90.5t-88.5 219.5q0 128 88.5 218t215.5 90z"/>
<glyph glyph-name="ordfeminine" horiz-adv-x="346" unicode="ª" d="M235 372v55h-7q-129 0 -129 -67q0 -24 17 -37.5t41 -13.5q43 0 68 36q10 17 10 27zM305 266h-60l-6 42h-2q-37 -47 -101 -47q-48 0 -75.5 27t-27.5 68q0 53 49.5 83.5t139.5 30.5h12v10q0 11 -4.5 23.5t-22.5 25.5t-47 13q-52 0 -86 -27l-16 43q46 33 114 33 q127 0 127 -140v-107q0 -42 6 -78z"/>
<glyph glyph-name="guillemotleft" horiz-adv-x="419" unicode="«" d="M396 436l-134 -184l134 -184h-71l-132 184l132 184h71zM232 436l-134 -184l134 -184h-71l-132 184l132 184h71z"/>
<glyph glyph-name="logicalnot" horiz-adv-x="596" unicode="¬" d="M40 399h516v-278h-64v218h-452v60z"/>
<glyph glyph-name="uni00AD" horiz-adv-x="307" unicode="­" d="M30 303h247v-65h-247v65z"/>
<glyph glyph-name="registered" horiz-adv-x="419" unicode="®" d="M210 652q-54 0 -90.5 -38t-36.5 -93t36.5 -93t91.5 -38q54 0 89.5 37.5t35.5 92.5t-36 93.5t-90 38.5zM210 685q71 0 119.5 -47.5t48.5 -116.5q0 -70 -48.5 -118t-119.5 -48t-120 48t-49 118q0 68 49.5 116t119.5 48zM185 575v-47h18q38 0 38 24q0 25 -35 25 q-13 0 -21 -2zM184 501v-66h-38v164q25 5 63 5q36 0 57 -12q16 -12 16 -36q0 -28 -34 -38v-2q23 -9 30 -40q7 -33 12 -41h-41q-4 4 -13 40q-4 26 -34 26h-18z"/>
<glyph glyph-name="macron" horiz-adv-x="300" unicode="¯" d="M38 643h225v-57h-225v57z"/>
<glyph glyph-name="degree" horiz-adv-x="318" unicode="°" d="M161 638q-37 0 -57.5 -26.5t-20.5 -61.5t22.5 -58.5t55.5 -23.5q34 0 56.5 24.5t22.5 61.5q0 32 -20 58t-59 26zM162 685q59 0 95.5 -38.5t36.5 -91.5q0 -59 -40 -96.5t-94 -37.5q-58 0 -94.5 38t-36.5 93q0 56 39 94.5t94 38.5z"/>
<glyph glyph-name="plusminus" horiz-adv-x="596" unicode="±" d="M40 60h516v-60h-516v60zM266 572h64v-195h226v-60h-226v-200h-64v200h-226v60h226v195z"/>
<glyph glyph-name="twosuperior" horiz-adv-x="311" unicode="²" d="M12 443v37l63 58q68 62 97 100t29 74q0 30 -19.5 49.5t-56.5 19.5q-42 0 -84 -31l-21 46q52 42 122 42q65 0 99 -34t34 -79q0 -52 -32.5 -95t-100.5 -102l-31 -28v-2h171v-55h-270z"/>
<glyph glyph-name="threesuperior" horiz-adv-x="305" unicode="³" d="M45 759l-17 47q49 32 115 32q61 0 91.5 -27.5t30.5 -67.5q0 -30 -20.5 -53.5t-56.5 -36.5v-2q41 -5 67 -32t26 -64q0 -49 -42.5 -83t-115.5 -34q-74 0 -114 27l18 50q42 -26 93 -26q43 0 65.5 20.5t21.5 46.5q0 36 -31 53.5t-75 17.5h-27v46h28q33 0 61.5 16t29.5 47 q0 21 -15.5 35.5t-47.5 14.5q-46 0 -85 -27z"/>
<glyph glyph-name="acute" horiz-adv-x="300" unicode="´" d="M189 693h97l-122 -143h-63z"/>
<glyph glyph-name="mu" horiz-adv-x="553" unicode="µ" d="M403 75h-3q-18 -34 -54 -59t-85 -25q-76 0 -106 53v-60q0 -138 11 -182h-79q-14 42 -14 178v504h87v-286q0 -60 27 -98.5t82 -38.5q41 0 72 24t44 57q8 21 8 45v297h87v-351q0 -40 10 -57.5t36 -18.5l-7 -64q-13 -4 -30 -4q-75 0 -86 86z"/>
<glyph glyph-name="paragraph" horiz-adv-x="512" unicode="¶" d="M293 -49h-63v313h-7q-68 0 -128.5 52t-60.5 140q0 42 13 78.5t42 69.5t85.5 52.5t134.5 19.5q79 0 117 -9v-716h-62v664h-71v-664z"/>
<glyph glyph-name="periodcentered" horiz-adv-x="207" unicode="·" d="M103 200q-25 0 -42 17.5t-17 43.5q0 28 16.5 46.5t43.5 18.5q26 0 42 -17.5t17 -45.5q0 -27 -16.5 -45t-43.5 -18z"/>
<glyph glyph-name="cedilla" horiz-adv-x="300" unicode="¸" d="M136 2h54l-33 -52q29 -4 49.5 -23t20.5 -46q0 -42 -29.5 -61.5t-74.5 -19.5q-39 0 -68 17l15 43q24 -15 54 -15q43 0 43 32q-1 35 -78 42z"/>
<glyph glyph-name="onesuperior" horiz-adv-x="244" unicode="¹" d="M177 443h-70v328h-2l-72 -34l-11 52l94 44h61v-390z"/>
<glyph glyph-name="ordmasculine" horiz-adv-x="355" unicode="º" d="M177 541q-45 0 -68.5 -35t-23.5 -81q0 -49 27.5 -81.5t65.5 -32.5q40 0 66 32t26 83q0 44 -24 79.5t-69 35.5zM179 591q72 0 115 -45.5t43 -117.5q-1 -81 -48.5 -124t-111.5 -43q-68 0 -113.5 45t-45.5 117q0 76 47 122t114 46z"/>
<glyph glyph-name="guillemotright" horiz-adv-x="419" unicode="»" d="M320 252l-134 184h71l133 -184l-133 -184h-70zM157 252l-134 184h71l133 -184l-133 -184h-70z"/>
<glyph glyph-name="onequarter" horiz-adv-x="759" unicode="¼" d="M596 152v118q0 3 3 63h-2q-19 -37 -34 -59l-86 -120v-2h119zM664 0h-68v103h-189v40l178 249h79v-240h55v-49h-55v-103zM194 -11h-56l380 672h56zM198 266h-70v329h-2l-72 -35l-11 52l94 44h61v-390z"/>
<glyph glyph-name="onehalf" horiz-adv-x="759" unicode="½" d="M440 0v37l63 59q68 61 97 99t29 74q0 30 -19.5 50t-56.5 20q-39 0 -84 -31l-21 45q49 42 122 42q66 0 99.5 -33.5t33.5 -79.5q0 -51 -32 -94t-101 -103l-31 -28v-2h171v-55h-270zM175 -11h-56l379 672h57zM184 266h-70v329h-2l-72 -35l-11 52l93 44h62v-390z"/>
<glyph glyph-name="threequarters" horiz-adv-x="759" unicode="¾" d="M607 152v118q0 3 3 63h-2q-19 -37 -34 -59l-87 -120l1 -2h119zM674 0h-67v103h-189v40l177 249h79v-240h56v-49h-56v-103zM231 -11h-56l380 672h56zM66 583l-17 47q48 31 115 31q61 0 91.5 -27t30.5 -67q0 -30 -20.5 -54t-55.5 -36v-2q41 -6 66.5 -32.5t25.5 -64.5 q0 -49 -42 -83t-115 -34q-72 0 -115 28l18 50q38 -26 93 -26q43 0 65.5 20.5t22.5 46.5q-1 35 -32 52.5t-74 17.5h-28v46h28q34 0 62.5 16t28.5 48q0 20 -16 34.5t-47 14.5q-47 0 -85 -26z"/>
<glyph glyph-name="questiondown" horiz-adv-x="406" unicode="¿" d="M197 285h78l3 -26q1 -6 1 -19q0 -75 -64 -152q-37 -44 -53 -74t-16 -62q0 -39 24 -62t71 -23q61 0 101 31l24 -64q-59 -40 -144 -40q-81 0 -124 42.5t-43 104.5q0 46 21.5 83.5t65.5 88.5q56 69 56 134v12zM237 489q27 0 43 -17.5t16 -44.5t-16.5 -45t-42.5 -18t-42.5 18 t-16.5 45t16.5 44.5t42.5 17.5z"/>
<glyph glyph-name="Agrave" horiz-adv-x="612" unicode="À" d="M160 827h107l92 -116h-71zM203 280h203l-66 194q-14 41 -35 123h-2q-17 -70 -34 -122zM424 212h-239l-70 -212h-90l229 674h105l230 -674h-93z"/>
<glyph glyph-name="Aacute" horiz-adv-x="612" unicode="Á" d="M348 827h106l-127 -117h-72zM203 280h203l-66 194q-14 41 -35 123h-2q-17 -70 -34 -122zM424 212h-239l-70 -212h-90l229 674h105l230 -674h-93z"/>
<glyph glyph-name="Acircumflex" horiz-adv-x="612" unicode="Â" d="M276 824h67l105 -114h-74l-63 69h-2l-64 -69h-71zM203 280h203l-66 194q-14 41 -35 123h-2q-17 -70 -34 -122zM424 212h-239l-70 -212h-90l229 674h105l230 -674h-93z"/>
<glyph glyph-name="Atilde" horiz-adv-x="612" unicode="Ã" d="M232 715h-47q-1 46 17.5 74t50.5 28q22 0 60 -20q32 -18 47 -18q13 0 19.5 8t7.5 31h47q2 -97 -68 -97q-23 0 -61 19q-36 19 -47 19q-21 0 -26 -44zM203 280h203l-66 194q-14 41 -35 123h-2q-17 -70 -34 -122zM424 212h-239l-70 -212h-90l229 674h105l230 -674h-93z"/>
<glyph glyph-name="Adieresis" horiz-adv-x="612" unicode="Ä" d="M402 719q-21 0 -34.5 14.5t-13.5 36.5q0 21 14 35.5t35 14.5t34.5 -14.5t13.5 -35.5q0 -22 -13.5 -36.5t-35.5 -14.5zM217 719q-21 0 -35 15t-14 36t14 35.5t36 14.5q20 0 33.5 -14.5t13.5 -35.5q0 -22 -13.5 -36.5t-34.5 -14.5zM203 280h203l-66 194q-14 41 -35 123h-2 q-17 -70 -34 -122zM424 212h-239l-70 -212h-90l229 674h105l230 -674h-93z"/>
<glyph glyph-name="Aring" horiz-adv-x="612" unicode="Å" d="M307 842q-22 0 -35 -16t-13 -39q0 -20 13.5 -35.5t34.5 -15.5t34.5 15.5t13.5 37.5t-13.5 37.5t-34.5 15.5zM308 878q45 0 72 -26t27 -64t-28 -63.5t-71 -25.5q-45 0 -72.5 25.5t-27.5 62.5q0 39 27.5 65t72.5 26zM203 280h203l-66 194q-14 41 -35 123h-2 q-17 -70 -34 -122zM424 212h-239l-70 -212h-90l229 674h105l230 -674h-93z"/>
<glyph glyph-name="AE" horiz-adv-x="788" unicode="Æ" d="M226 308h168l-22 194q-11 84 -12 109h-4q-10 -28 -43 -106zM89 0h-90l308 674h422v-73h-287l26 -215h251v-72h-240l30 -241h247v-73h-322l-30 238h-207z"/>
<glyph glyph-name="Ccedilla" horiz-adv-x="580" unicode="Ç" d="M529 91l18 -69q-64 -32 -177 -32l-23 -40q30 -6 50 -26t20 -49q0 -41 -30 -61t-73 -20q-42 0 -71 17l14 45q24 -13 56 -13q42 0 42 30q0 35 -78 43l42 77q-128 16 -205.5 103.5t-77.5 234.5q0 158 97.5 256t254.5 98q103 0 160 -30l-21 -71q-58 28 -136 28 q-120 0 -191.5 -73.5t-71.5 -204.5q0 -125 68.5 -198t190.5 -73q84 0 142 28z"/>
<glyph glyph-name="Egrave" horiz-adv-x="492" unicode="È" d="M119 827h106l93 -116h-72zM425 388v-72h-262v-243h292v-73h-379v674h364v-73h-277v-213h262z"/>
<glyph glyph-name="Eacute" horiz-adv-x="492" unicode="É" d="M302 827h106l-127 -117h-72zM425 388v-72h-262v-243h292v-73h-379v674h364v-73h-277v-213h262z"/>
<glyph glyph-name="Ecircumflex" horiz-adv-x="492" unicode="Ê" d="M223 824h67l105 -114h-74l-64 69h-2l-63 -69h-72zM425 388v-72h-262v-243h292v-73h-379v674h364v-73h-277v-213h262z"/>
<glyph glyph-name="Edieresis" horiz-adv-x="492" unicode="Ë" d="M348 721q-21 0 -35 15t-14 36t14 35.5t35 14.5t35 -14.5t14 -35.5q0 -22 -13.5 -36.5t-35.5 -14.5zM163 721q-22 0 -36 15t-14 36q0 20 14.5 35t35.5 15t34.5 -14.5t13.5 -35.5q0 -22 -13.5 -36.5t-34.5 -14.5zM425 388v-72h-262v-243h292v-73h-379v674h364v-73h-277 v-213h262z"/>
<glyph glyph-name="Igrave" horiz-adv-x="239" unicode="Ì" d="M-25 827h106l92 -116h-71zM76 674h87v-674h-87v674z"/>
<glyph glyph-name="Iacute" horiz-adv-x="239" unicode="Í" d="M159 827h107l-128 -117h-71zM76 674h87v-674h-87v674z"/>
<glyph glyph-name="Icircumflex" horiz-adv-x="239" unicode="Î" d="M85 824h67l105 -114h-73l-64 69h-2l-64 -69h-71zM76 674h87v-674h-87v674z"/>
<glyph glyph-name="Idieresis" horiz-adv-x="239" unicode="Ï" d="M213 721q-21 0 -35 15t-14 36t14.5 35.5t35.5 14.5t34.5 -14.5t13.5 -35.5q0 -22 -13.5 -36.5t-35.5 -14.5zM28 721q-22 0 -36 15t-14 36q0 20 14.5 35t35.5 15t34.5 -14.5t13.5 -35.5q0 -22 -13.5 -36.5t-34.5 -14.5zM76 674h87v-674h-87v674z"/>
<glyph glyph-name="Eth" horiz-adv-x="671" unicode="Ð" d="M348 377v-70h-180v-240q29 -4 87 -4q141 0 214.5 74.5t73.5 214.5q1 123 -68.5 191.5t-204.5 68.5q-61 0 -102 -9v-226h180zM-2 307v70h83v290q88 15 185 15q183 0 273 -84q95 -87 95 -245q0 -166 -97 -263t-298 -97q-96 0 -158 7v307h-83z"/>
<glyph glyph-name="Ntilde" horiz-adv-x="658" unicode="Ñ" d="M257 715h-47v6q0 43 18.5 69.5t49.5 26.5q21 0 59 -20q32 -18 48 -18q12 0 18.5 8t8.5 31h46q2 -97 -67 -97q-23 0 -61 19q-36 19 -47 19q-23 0 -26 -44zM158 0h-82v674h95l216 -341q73 -115 121 -219l2 1q-10 113 -10 277v282h82v-674h-88l-214 342q-83 132 -126 225 l-3 -1q7 -119 7 -278v-288z"/>
<glyph glyph-name="Ograve" horiz-adv-x="689" unicode="Ò" d="M199 829h107l92 -116h-71zM345 614q-103 0 -159.5 -81.5t-56.5 -199.5q0 -113 58 -193t157 -80q100 0 158 80t58 200q0 110 -56.5 192t-158.5 82zM349 685q137 0 220 -95t83 -246q0 -168 -89 -261.5t-224 -93.5q-134 0 -218.5 95t-84.5 247q0 159 88 256.5t225 97.5z"/>
<glyph glyph-name="Oacute" horiz-adv-x="689" unicode="Ó" d="M384 829h106l-127 -116h-72zM345 614q-103 0 -159.5 -81.5t-56.5 -199.5q0 -113 58 -193t157 -80q100 0 158 80t58 200q0 110 -56.5 192t-158.5 82zM349 685q137 0 220 -95t83 -246q0 -168 -89 -261.5t-224 -93.5q-134 0 -218.5 95t-84.5 247q0 159 88 256.5t225 97.5z "/>
<glyph glyph-name="Ocircumflex" horiz-adv-x="689" unicode="Ô" d="M310 827h67l105 -114h-74l-64 69h-2l-63 -69h-72zM345 614q-103 0 -159.5 -81.5t-56.5 -199.5q0 -113 58 -193t157 -80q100 0 158 80t58 200q0 110 -56.5 192t-158.5 82zM349 685q137 0 220 -95t83 -246q0 -168 -89 -261.5t-224 -93.5q-134 0 -218.5 95t-84.5 247 q0 159 88 256.5t225 97.5z"/>
<glyph glyph-name="Otilde" horiz-adv-x="689" unicode="Õ" d="M267 717h-47v6q0 43 18.5 69.5t49.5 26.5q24 0 59 -20q32 -18 48 -18q12 0 18.5 8t8.5 31h46q2 -97 -67 -97q-23 0 -61 19q-36 19 -47 19q-23 0 -26 -44zM345 614q-103 0 -159.5 -81.5t-56.5 -199.5q0 -113 58 -193t157 -80q100 0 158 80t58 200q0 110 -56.5 192 t-158.5 82zM349 685q137 0 220 -95t83 -246q0 -168 -89 -261.5t-224 -93.5q-134 0 -218.5 95t-84.5 247q0 159 88 256.5t225 97.5z"/>
<glyph glyph-name="Odieresis" horiz-adv-x="689" unicode="Ö" d="M437 721q-21 0 -35 15t-14 36t14.5 35.5t35.5 14.5t34.5 -14.5t13.5 -35.5q0 -22 -13.5 -36.5t-35.5 -14.5zM252 721q-22 0 -35.5 14.5t-13.5 36.5q0 21 14 35.5t35 14.5t34.5 -14.5t13.5 -35.5q0 -22 -13.5 -36.5t-34.5 -14.5zM345 614q-103 0 -159.5 -81.5 t-56.5 -199.5q0 -113 58 -193t157 -80q100 0 158 80t58 200q0 110 -56.5 192t-158.5 82zM349 685q137 0 220 -95t83 -246q0 -168 -89 -261.5t-224 -93.5q-134 0 -218.5 95t-84.5 247q0 159 88 256.5t225 97.5z"/>
<glyph glyph-name="multiply" horiz-adv-x="596" unicode="×" d="M40 482l44 44l214 -219l214 219l44 -44l-215 -219l215 -219l-44 -44l-214 219l-214 -219l-44 44l214 219z"/>
<glyph glyph-name="Oslash" horiz-adv-x="689" unicode="Ø" d="M513 515l-295 -408q51 -48 126 -48q102 0 160.5 81t58.5 200q0 98 -47 175h-3zM176 158l296 410q-55 47 -126 47q-104 0 -162.5 -81.5t-58.5 -195.5q0 -94 50 -181zM112 -43l-49 39l62 88q-89 95 -89 249q0 157 88.5 254.5t222.5 97.5q95 0 168 -53l59 81l53 -36l-62 -86 q87 -95 87 -248q0 -168 -88.5 -261t-217.5 -93q-97 0 -171 54z"/>
<glyph glyph-name="Ugrave" horiz-adv-x="647" unicode="Ù" d="M183 827h106l93 -116h-72zM75 674h88v-399q0 -108 43 -161.5t114 -53.5q78 0 121 53t43 162v399h88v-393q0 -148 -69.5 -220t-185.5 -72q-111 0 -176.5 69.5t-65.5 218.5v397z"/>
<glyph glyph-name="Uacute" horiz-adv-x="647" unicode="Ú" d="M366 827h107l-128 -117h-71zM75 674h88v-399q0 -108 43 -161.5t114 -53.5q78 0 121 53t43 162v399h88v-393q0 -148 -69.5 -220t-185.5 -72q-111 0 -176.5 69.5t-65.5 218.5v397z"/>
<glyph glyph-name="Ucircumflex" horiz-adv-x="647" unicode="Û" d="M295 824h67l105 -114h-74l-63 69h-2l-64 -69h-71zM75 674h88v-399q0 -108 43 -161.5t114 -53.5q78 0 121 53t43 162v399h88v-393q0 -148 -69.5 -220t-185.5 -72q-111 0 -176.5 69.5t-65.5 218.5v397z"/>
<glyph glyph-name="Udieresis" horiz-adv-x="647" unicode="Ü" d="M419 721q-22 0 -35.5 14.5t-13.5 36.5q0 21 14 35.5t35 14.5t34.5 -14.5t13.5 -35.5q0 -22 -13.5 -36.5t-34.5 -14.5zM233 721q-21 0 -35 15t-14 36q0 20 14.5 35t35.5 15q20 0 34 -14.5t14 -35.5t-14 -36t-35 -15zM75 674h88v-399q0 -108 43 -161.5t114 -53.5 q78 0 121 53t43 162v399h88v-393q0 -148 -69.5 -220t-185.5 -72q-111 0 -176.5 69.5t-65.5 218.5v397z"/>
<glyph glyph-name="Yacute" horiz-adv-x="541" unicode="Ý" d="M320 821h106l-127 -116h-72zM314 0h-88v286l-213 388h99l95 -186q40 -78 67 -139h2q16 37 68 139l97 186h99l-226 -387v-287z"/>
<glyph glyph-name="Thorn" horiz-adv-x="531" unicode="Þ" d="M162 473v-246q28 -6 75 -6q80 0 123.5 36t43.5 98q0 63 -41 94.5t-113 31.5q-56 0 -88 -8zM76 0v674h86v-132q43 8 96 8q115 0 178 -55q55 -52 55 -131q0 -103 -69.5 -158t-183.5 -55q-41 0 -76 5v-156h-86z"/>
<glyph glyph-name="germandbls" horiz-adv-x="548" unicode="ß" d="M161 0h-88v452q0 153 71 218q57 51 147 51q75 0 126.5 -45t51.5 -124q0 -49 -23 -82q-72 -30 -72 -81q0 -16 7 -31.5t16 -25.5t28 -30q26 -26 40 -42.5t27.5 -47t13.5 -64.5q0 -71 -48.5 -115t-130.5 -44q-65 0 -106 21l16 67q40 -20 84 -20q46 0 72 24t26 60 q0 53 -54 103q-39 37 -58.5 66t-19.5 67q0 79 89 123q9 22 9 43q0 51 -28.5 80t-75.5 29q-60 0 -90 -46t-30 -150v-456z"/>
<glyph glyph-name="agrave" horiz-adv-x="482" unicode="à" d="M95 693h97l87 -143h-62zM328 163v84h-14q-191 0 -191 -109q0 -41 23.5 -62.5t59.5 -21.5q44 0 74.5 23.5t42.5 57.5q5 15 5 28zM421 0h-80l-7 61h-3q-22 -31 -60.5 -51.5t-87.5 -20.5q-70 0 -109 41t-39 98q0 87 74.5 133.5t212.5 46.5h4v10q0 112 -110 112 q-70 0 -126 -36l-20 58q66 43 159 43q53 0 90.5 -17t57 -46.5t28 -62t8.5 -72.5v-181q0 -72 8 -116z"/>
<glyph glyph-name="aacute" horiz-adv-x="482" unicode="á" d="M275 693h97l-122 -143h-63zM328 163v84h-14q-191 0 -191 -109q0 -41 23.5 -62.5t59.5 -21.5q44 0 74.5 23.5t42.5 57.5q5 15 5 28zM421 0h-80l-7 61h-3q-22 -31 -60.5 -51.5t-87.5 -20.5q-70 0 -109 41t-39 98q0 87 74.5 133.5t212.5 46.5h4v10q0 112 -110 112 q-70 0 -126 -36l-20 58q66 43 159 43q53 0 90.5 -17t57 -46.5t28 -62t8.5 -72.5v-181q0 -72 8 -116z"/>
<glyph glyph-name="acircumflex" horiz-adv-x="482" unicode="â" d="M205 693h61l96 -143h-67l-58 95h-2l-58 -95h-66zM328 163v84h-14q-191 0 -191 -109q0 -41 23.5 -62.5t59.5 -21.5q44 0 74.5 23.5t42.5 57.5q5 15 5 28zM421 0h-80l-7 61h-3q-22 -31 -60.5 -51.5t-87.5 -20.5q-70 0 -109 41t-39 98q0 87 74.5 133.5t212.5 46.5h4v10 q0 112 -110 112q-70 0 -126 -36l-20 58q66 43 159 43q53 0 90.5 -17t57 -46.5t28 -62t8.5 -72.5v-181q0 -72 8 -116z"/>
<glyph glyph-name="atilde" horiz-adv-x="482" unicode="ã" d="M163 567h-48v7q0 46 18 71.5t50 25.5q23 0 62 -22q30 -17 42 -17q13 0 19.5 9.5t8.5 33.5h46v-8q0 -93 -68 -93q-23 0 -61 20q-30 18 -43 18q-23 0 -26 -45zM328 163v84h-14q-191 0 -191 -109q0 -41 23.5 -62.5t59.5 -21.5q44 0 74.5 23.5t42.5 57.5q5 15 5 28zM421 0 h-80l-7 61h-3q-22 -31 -60.5 -51.5t-87.5 -20.5q-70 0 -109 41t-39 98q0 87 74.5 133.5t212.5 46.5h4v10q0 112 -110 112q-70 0 -126 -36l-20 58q66 43 159 43q53 0 90.5 -17t57 -46.5t28 -62t8.5 -72.5v-181q0 -72 8 -116z"/>
<glyph glyph-name="adieresis" horiz-adv-x="482" unicode="ä" d="M334 570q-22 0 -36 15t-14 36t14.5 36t35.5 15t35 -14.5t14 -36.5q0 -21 -14 -36t-35 -15zM149 570q-22 0 -36.5 15t-14.5 36t15 36t36 15t35 -14.5t14 -36.5q0 -21 -14 -36t-35 -15zM328 163v84h-14q-191 0 -191 -109q0 -41 23.5 -62.5t59.5 -21.5q44 0 74.5 23.5 t42.5 57.5q5 15 5 28zM421 0h-80l-7 61h-3q-22 -31 -60.5 -51.5t-87.5 -20.5q-70 0 -109 41t-39 98q0 87 74.5 133.5t212.5 46.5h4v10q0 112 -110 112q-70 0 -126 -36l-20 58q66 43 159 43q53 0 90.5 -17t57 -46.5t28 -62t8.5 -72.5v-181q0 -72 8 -116z"/>
<glyph glyph-name="aring" horiz-adv-x="482" unicode="å" d="M239 574q23 0 37.5 16.5t14.5 39.5t-14.5 39t-37.5 16t-36 -16.5t-13 -40.5q0 -21 14 -37.5t35 -16.5zM240 537q-44 0 -72.5 26t-28.5 65q0 41 28 68t74 27q44 0 71.5 -27t27.5 -67t-28.5 -66t-71.5 -26zM328 163v84h-14q-191 0 -191 -109q0 -41 23.5 -62.5t59.5 -21.5 q44 0 74.5 23.5t42.5 57.5q5 15 5 28zM421 0h-80l-7 61h-3q-22 -31 -60.5 -51.5t-87.5 -20.5q-70 0 -109 41t-39 98q0 87 74.5 133.5t212.5 46.5h4v10q0 112 -110 112q-70 0 -126 -36l-20 58q66 43 159 43q53 0 90.5 -17t57 -46.5t28 -62t8.5 -72.5v-181q0 -72 8 -116z"/>
<glyph glyph-name="ae" horiz-adv-x="773" unicode="æ" d="M409 296h243v7q0 47 -28 88t-85 41q-59 0 -93 -43.5t-37 -92.5zM329 172v71h-14q-192 0 -192 -109q0 -37 24 -58.5t60 -21.5q45 0 75.5 23.5t41.5 59.5q5 14 5 35zM734 233h-324v-7q0 -80 42.5 -124.5t111.5 -44.5q74 0 132 28l16 -62q-63 -34 -159 -34q-63 0 -113 28.5 t-71 78.5h-2q-23 -50 -70.5 -78.5t-109.5 -28.5q-72 0 -111.5 40.5t-39.5 97.5q0 83 74 129t210 46h8v20q0 12 -4.5 27.5t-15 35t-35 32.5t-58.5 13q-70 0 -124 -37l-21 58q70 44 151 44q123 0 156 -103h2q25 49 69 76t100 27q42 0 76 -15.5t54.5 -39.5t34.5 -55t19 -59 t5 -54t-3 -39z"/>
<glyph glyph-name="ccedilla" horiz-adv-x="448" unicode="ç" d="M403 84l15 -66q-48 -25 -125 -28l-26 -40q29 -4 49.5 -23t20.5 -46q0 -42 -29.5 -61.5t-74.5 -19.5q-39 0 -68 17l15 43q24 -15 54 -15q43 0 43 32q-1 35 -78 42l42 73q-93 12 -148 78t-55 167q0 113 71.5 185t188.5 72q72 0 122 -25l-20 -68q-40 23 -102 23 q-80 0 -125.5 -52t-45.5 -131q0 -83 47.5 -132t120.5 -49q53 0 108 24z"/>
<glyph glyph-name="egrave" horiz-adv-x="501" unicode="è" d="M135 693h97l88 -143h-63zM123 289h257q1 54 -27.5 98.5t-94.5 44.5q-61 0 -95 -44t-40 -99zM462 226h-340q1 -84 48 -126t118 -42q75 0 134 25l15 -63q-66 -30 -161 -30q-111 0 -174.5 66.5t-63.5 177.5q0 112 62 186.5t165 74.5q56 0 97.5 -22.5t62.5 -59t30.5 -73 t9.5 -73.5q0 -14 -3 -41z"/>
<glyph glyph-name="eacute" horiz-adv-x="501" unicode="é" d="M304 693h97l-122 -143h-63zM123 289h257q1 54 -27.5 98.5t-94.5 44.5q-61 0 -95 -44t-40 -99zM462 226h-340q1 -84 48 -126t118 -42q75 0 134 25l15 -63q-66 -30 -161 -30q-111 0 -174.5 66.5t-63.5 177.5q0 112 62 186.5t165 74.5q56 0 97.5 -22.5t62.5 -59t30.5 -73 t9.5 -73.5q0 -14 -3 -41z"/>
<glyph glyph-name="ecircumflex" horiz-adv-x="501" unicode="ê" d="M232 693h60l96 -143h-67l-58 95h-2l-58 -95h-66zM123 289h257q1 54 -27.5 98.5t-94.5 44.5q-61 0 -95 -44t-40 -99zM462 226h-340q1 -84 48 -126t118 -42q75 0 134 25l15 -63q-66 -30 -161 -30q-111 0 -174.5 66.5t-63.5 177.5q0 112 62 186.5t165 74.5q56 0 97.5 -22.5 t62.5 -59t30.5 -73t9.5 -73.5q0 -14 -3 -41z"/>
<glyph glyph-name="edieresis" horiz-adv-x="501" unicode="ë" d="M361 570q-22 0 -36 15t-14 36t14.5 36t35.5 15t35 -14.5t14 -36.5q0 -21 -14 -36t-35 -15zM176 570q-22 0 -36.5 15t-14.5 36t15 36t36 15t35 -14.5t14 -36.5q0 -21 -14 -36t-35 -15zM123 289h257q1 54 -27.5 98.5t-94.5 44.5q-61 0 -95 -44t-40 -99zM462 226h-340 q1 -84 48 -126t118 -42q75 0 134 25l15 -63q-66 -30 -161 -30q-111 0 -174.5 66.5t-63.5 177.5q0 112 62 186.5t165 74.5q56 0 97.5 -22.5t62.5 -59t30.5 -73t9.5 -73.5q0 -14 -3 -41z"/>
<glyph glyph-name="igrave" horiz-adv-x="234" unicode="ì" d="M-28 693h97l88 -143h-62zM161 0h-88v484h88v-484z"/>
<glyph glyph-name="iacute" horiz-adv-x="234" unicode="í" d="M155 693h97l-122 -143h-63zM161 0h-88v484h88v-484z"/>
<glyph glyph-name="icircumflex" horiz-adv-x="234" unicode="î" d="M86 693h61l96 -143h-68l-58 95h-2l-58 -95h-65zM161 0h-88v484h88v-484z"/>
<glyph glyph-name="idieresis" horiz-adv-x="234" unicode="ï" d="M210 570q-22 0 -36 15t-14 36t14.5 36t35.5 15t35 -14.5t14 -36.5q0 -21 -14 -36t-35 -15zM25 570q-22 0 -36.5 15t-14.5 36t15 36t36 15t35 -14.5t14 -36.5q0 -21 -14 -36t-35 -15zM161 0h-88v484h88v-484z"/>
<glyph glyph-name="eth" horiz-adv-x="541" unicode="ð" d="M116 507l-19 43l116 55q-38 28 -104 60l38 55q79 -36 141 -81l128 61l21 -44l-106 -50q85 -69 128 -159q42 -89 42 -196q0 -129 -69 -195.5t-165 -66.5q-100 0 -164.5 67.5t-64.5 179.5q0 113 67 180.5t158 67.5q66 0 111 -43l2 3q-45 75 -118 129zM267 55 q65 0 104.5 52.5t39.5 135.5q0 92 -34 134q-41 47 -106 47q-71 0 -107.5 -58t-36.5 -129q0 -77 40 -129.5t100 -52.5z"/>
<glyph glyph-name="ntilde" horiz-adv-x="555" unicode="ñ" d="M203 567h-48v7q0 46 18 71.5t50 25.5q23 0 62 -22q30 -17 42 -17q25 0 28 43h47q2 -101 -69 -101q-23 0 -61 20q-30 18 -43 18q-23 0 -26 -45zM73 0v353q0 78 -4 131h78l5 -80h2q20 38 62 64.5t98 26.5q28 0 55.5 -9.5t54.5 -31t44 -64t17 -101.5v-289h-88v279 q0 64 -27 103.5t-85 39.5q-42 0 -74 -26t-44 -64q-6 -16 -6 -41v-291h-88z"/>
<glyph glyph-name="ograve" horiz-adv-x="549" unicode="ò" d="M145 693h97l87 -143h-62zM276 429q-73 0 -111 -55.5t-38 -132.5q0 -80 41.5 -133t105.5 -53q63 0 105 53.5t42 134.5q0 44 -14 84.5t-48 71t-83 30.5zM278 495q104 0 168.5 -69t64.5 -180q0 -125 -71.5 -191t-169.5 -66q-100 0 -166 68t-66 181q0 118 68 187.5t172 69.5z "/>
<glyph glyph-name="oacute" horiz-adv-x="549" unicode="ó" d="M309 693h97l-122 -143h-63zM276 429q-73 0 -111 -55.5t-38 -132.5q0 -80 41.5 -133t105.5 -53q63 0 105 53.5t42 134.5q0 44 -14 84.5t-48 71t-83 30.5zM278 495q104 0 168.5 -69t64.5 -180q0 -125 -71.5 -191t-169.5 -66q-100 0 -166 68t-66 181q0 118 68 187.5 t172 69.5z"/>
<glyph glyph-name="ocircumflex" horiz-adv-x="549" unicode="ô" d="M243 693h61l96 -143h-68l-58 95h-2l-58 -95h-65zM276 429q-73 0 -111 -55.5t-38 -132.5q0 -80 41.5 -133t105.5 -53q63 0 105 53.5t42 134.5q0 44 -14 84.5t-48 71t-83 30.5zM278 495q104 0 168.5 -69t64.5 -180q0 -125 -71.5 -191t-169.5 -66q-100 0 -166 68t-66 181 q0 118 68 187.5t172 69.5z"/>
<glyph glyph-name="otilde" horiz-adv-x="549" unicode="õ" d="M199 567h-48v7q0 46 18 71.5t50 25.5q23 0 62 -22q30 -17 42 -17q25 0 28 43h47q2 -101 -69 -101q-23 0 -61 20q-30 18 -43 18q-23 0 -26 -45zM276 429q-73 0 -111 -55.5t-38 -132.5q0 -80 41.5 -133t105.5 -53q63 0 105 53.5t42 134.5q0 44 -14 84.5t-48 71t-83 30.5z M278 495q104 0 168.5 -69t64.5 -180q0 -125 -71.5 -191t-169.5 -66q-100 0 -166 68t-66 181q0 118 68 187.5t172 69.5z"/>
<glyph glyph-name="odieresis" horiz-adv-x="549" unicode="ö" d="M367 570q-22 0 -36 15t-14 36t14.5 36t35.5 15t35 -14.5t14 -36.5q0 -21 -14 -36t-35 -15zM182 570q-22 0 -36.5 15t-14.5 36t15 36t36 15t35 -14.5t14 -36.5q0 -21 -14 -36t-35 -15zM276 429q-73 0 -111 -55.5t-38 -132.5q0 -80 41.5 -133t105.5 -53q63 0 105 53.5 t42 134.5q0 44 -14 84.5t-48 71t-83 30.5zM278 495q104 0 168.5 -69t64.5 -180q0 -125 -71.5 -191t-169.5 -66q-100 0 -166 68t-66 181q0 118 68 187.5t172 69.5z"/>
<glyph glyph-name="divide" horiz-adv-x="596" unicode="÷" d="M298 36q-24 0 -38.5 15.5t-14.5 39.5q0 25 15 40.5t39 15.5q23 0 37.5 -15.5t14.5 -40.5q0 -24 -14.5 -39.5t-38.5 -15.5zM556 237h-516v60h516v-60zM298 387q-24 0 -38.5 15.5t-14.5 39.5q0 25 15 40.5t39 15.5q23 0 37.5 -15.5t14.5 -40.5q0 -24 -14.5 -39.5 t-38.5 -15.5z"/>
<glyph glyph-name="oslash" horiz-adv-x="549" unicode="ø" d="M389 361l-198 -278q32 -28 81 -28q68 0 110.5 53t42.5 135q0 68 -34 118h-2zM161 119l198 281q-35 29 -85 29q-75 0 -113 -56.5t-38 -131.5q0 -71 36 -121zM276 495q68 0 123 -35l42 60l39 -27l-42 -62q73 -70 73 -185q0 -124 -71 -190.5t-165 -66.5q-72 0 -124 34 l-43 -61l-37 30l42 60q-75 70 -75 187t68 186.5t170 69.5z"/>
<glyph glyph-name="ugrave" horiz-adv-x="551" unicode="ù" d="M140 693h97l88 -143h-63zM478 484v-352q0 -81 4 -132h-78l-5 79h-2q-21 -36 -61.5 -63t-98.5 -27q-31 0 -58.5 9.5t-53 32t-40.5 66t-15 104.5v283h88v-268q0 -154 108 -154q41 0 72 23.5t44 56.5q8 21 8 45v297h88z"/>
<glyph glyph-name="uacute" horiz-adv-x="551" unicode="ú" d="M321 693h97l-122 -143h-63zM478 484v-352q0 -81 4 -132h-78l-5 79h-2q-21 -36 -61.5 -63t-98.5 -27q-31 0 -58.5 9.5t-53 32t-40.5 66t-15 104.5v283h88v-268q0 -154 108 -154q41 0 72 23.5t44 56.5q8 21 8 45v297h88z"/>
<glyph glyph-name="ucircumflex" horiz-adv-x="551" unicode="û" d="M244 693h61l96 -143h-67l-58 95h-2l-58 -95h-66zM478 484v-352q0 -81 4 -132h-78l-5 79h-2q-21 -36 -61.5 -63t-98.5 -27q-31 0 -58.5 9.5t-53 32t-40.5 66t-15 104.5v283h88v-268q0 -154 108 -154q41 0 72 23.5t44 56.5q8 21 8 45v297h88z"/>
<glyph glyph-name="udieresis" horiz-adv-x="551" unicode="ü" d="M371 570q-22 0 -36 15t-14 36t14.5 36t35.5 15t35 -14.5t14 -36.5q0 -21 -14 -36t-35 -15zM186 570q-22 0 -36.5 15t-14.5 36t15 36t36 15t35 -14.5t14 -36.5q0 -21 -14 -36t-35 -15zM478 484v-352q0 -81 4 -132h-78l-5 79h-2q-21 -36 -61.5 -63t-98.5 -27 q-31 0 -58.5 9.5t-53 32t-40.5 66t-15 104.5v283h88v-268q0 -154 108 -154q41 0 72 23.5t44 56.5q8 21 8 45v297h88z"/>
<glyph glyph-name="yacute" horiz-adv-x="471" unicode="ý" d="M285 693h97l-122 -143h-63zM9 484h96l106 -286q19 -54 31 -99h2q1 3 12.5 41.5t18.5 59.5l96 284h93l-132 -345q-49 -129 -85.5 -197t-80.5 -106q-53 -47 -108 -57l-22 74q42 13 77 43q47 37 74 98q7 16 7 21q0 7 -6 23z"/>
<glyph glyph-name="thorn" horiz-adv-x="569" unicode="þ" d="M160 280v-89q0 -22 10 -44q14 -41 49 -65t79 -24q66 0 105.5 51t39.5 138q0 75 -39 126.5t-104 51.5q-43 0 -78.5 -26t-51.5 -70q-10 -28 -10 -49zM73 710h87v-303h2q55 88 165 88h2q86 0 144 -68.5t58 -178.5q0 -125 -65 -192t-155 -67q-100 0 -149 76h-2v-263h-87v908z "/>
<glyph glyph-name="OE" horiz-adv-x="894" unicode="Œ" d="M477 73v526q-43 15 -106 15q-112 0 -177.5 -76.5t-64.5 -201.5q-1 -125 66 -200.5t184 -75.5q62 0 98 13zM857 73v-73h-345q-18 0 -66 -6q-62 -5 -83 -5q-152 0 -239.5 96.5t-87.5 246.5q0 164 92 258.5t240 94.5q26 0 88 -5q50 -6 64 -6h322v-73h-277v-213h261v-73h-261 v-242h292z"/>
<glyph glyph-name="oe" horiz-adv-x="863" unicode="œ" d="M495 290h247q0 23 -5 45.5t-17 45t-37 36.5t-59 14q-59 0 -92 -43.5t-37 -97.5zM271 429q-50 0 -84 -30.5t-47 -71.5t-13 -86q0 -79 40.5 -132.5t103.5 -53.5q64 0 103 52t39 135q0 77 -36 132t-106 55zM824 227h-329q1 -80 45.5 -124.5t115.5 -44.5q66 0 130 27l16 -63 q-58 -33 -157 -33q-136 0 -191 114h-3q-26 -56 -77 -85t-110 -29q-98 0 -162 68.5t-64 181.5q0 115 66 185.5t166 70.5q62 0 111.5 -30.5t71.5 -85.5h2q27 57 73 86.5t103 29.5q44 0 79.5 -15.5t56.5 -39.5t35 -55t19.5 -60t5.5 -57q0 -27 -3 -41z"/>
<glyph glyph-name="Scaron" horiz-adv-x="493" unicode="Š" d="M292 713h-67l-105 114h74l64 -70h2l63 70h71zM42 33l22 73q71 -44 156 -44q66 0 103.5 31.5t37.5 83.5q0 47 -29 77.5t-98 56.5q-178 63 -178 191q0 80 60.5 131.5t157.5 51.5q91 0 149 -33l-24 -71q-59 32 -128 32q-63 0 -95 -30.5t-32 -70.5q0 -46 30.5 -74t103.5 -56 q89 -34 130.5 -80t41.5 -118q0 -83 -61 -138.5t-175 -55.5q-48 0 -96 12.5t-76 30.5z"/>
<glyph glyph-name="scaron" horiz-adv-x="396" unicode="š" d="M235 550h-64l-96 143h68l59 -95h2l59 95h66zM39 23l22 67q54 -35 116 -35q46 0 70 20t24 52q0 31 -20.5 51t-69.5 38q-128 46 -128 137q0 60 45.5 101t121.5 41q68 0 119 -30l-22 -64q-44 28 -99 28q-38 0 -59.5 -19t-21.5 -47q0 -29 20.5 -46t71.5 -36q65 -25 96 -59 t31 -87q0 -65 -48 -105t-133 -40q-80 0 -136 33z"/>
<glyph glyph-name="Ydieresis" horiz-adv-x="541" unicode="Ÿ" d="M372 714q-21 0 -34.5 14.5t-13.5 36.5q0 21 14 35.5t35 14.5t34.5 -14.5t13.5 -35.5q0 -22 -13.5 -36.5t-35.5 -14.5zM187 714q-21 0 -35 15t-14 36t14.5 35.5t35.5 14.5q20 0 33.5 -14.5t13.5 -35.5q0 -22 -13.5 -36.5t-34.5 -14.5zM314 0h-88v286l-213 388h99l95 -186 q40 -78 67 -139h2q16 37 68 139l97 186h99l-226 -387v-287z"/>
<glyph glyph-name="circumflex" horiz-adv-x="300" unicode="ˆ" d="M119 693h61l96 -143h-68l-58 95h-2l-58 -95h-65z"/>
<glyph glyph-name="tilde" horiz-adv-x="300" unicode="˜" d="M75 567h-48v7q0 46 18 71.5t50 25.5q23 0 62 -22q30 -17 42 -17q25 0 28 43h47q2 -101 -69 -101q-23 0 -61 20q-30 18 -43 18q-23 0 -26 -45z"/>
<glyph glyph-name="Alpha" horiz-adv-x="612" unicode="Α" d="M203 280h203l-66 194q-14 41 -35 123h-2q-17 -70 -34 -122zM424 212h-239l-70 -212h-90l229 674h105l230 -674h-93z"/>
<glyph glyph-name="Beta" horiz-adv-x="542" unicode="Β" d="M163 323v-257q23 -4 73 -4q75 0 124 31.5t49 99.5q0 65 -48.5 97.5t-125.5 32.5h-72zM163 606v-217h79q68 0 107 31.5t39 81.5q0 110 -148 110q-49 0 -77 -6zM76 2v663q66 14 159 14q124 0 185 -49q56 -42 56 -119q0 -49 -30.5 -89t-83.5 -59v-2q56 -14 97.5 -57 t41.5 -112q0 -80 -57 -135q-69 -63 -233 -63q-77 0 -135 8z"/>
<glyph glyph-name="Gamma" horiz-adv-x="451" unicode="Γ" d="M76 674h361v-73h-274v-601h-87v674z"/>
<glyph glyph-name="uni0394" horiz-adv-x="620" unicode="Δ" d="M118 73h376l-137 371q-36 99 -50 150h-3q-20 -67 -45 -137zM25 0v49l235 625h99l232 -624v-50h-566z"/>
<glyph glyph-name="Epsilon" horiz-adv-x="492" unicode="Ε" d="M425 388v-72h-262v-243h292v-73h-379v674h364v-73h-277v-213h262z"/>
<glyph glyph-name="Zeta" horiz-adv-x="553" unicode="Ζ" d="M30 0v51l374 547v3h-342v73h455v-53l-372 -545v-3h377v-73h-492z"/>
<glyph glyph-name="Eta" horiz-adv-x="652" unicode="Η" d="M76 674h87v-282h326v282h88v-674h-88v316h-326v-316h-87v674z"/>
<glyph glyph-name="Theta" horiz-adv-x="689" unicode="Θ" d="M209 383h271v-72h-271v72zM344 60q101 0 159 80t58 200q0 110 -56.5 192t-158.5 82q-104 0 -161 -82t-57 -199q0 -112 58.5 -192.5t157.5 -80.5zM341 -11q-135 0 -220 94.5t-85 247.5q0 159 88 256.5t225 97.5t220.5 -95t83.5 -246q0 -168 -89 -261.5t-223 -93.5z"/>
<glyph glyph-name="Iota" horiz-adv-x="239" unicode="Ι" d="M76 674h87v-674h-87v674z"/>
<glyph glyph-name="Kappa" horiz-adv-x="542" unicode="Κ" d="M76 0v674h87v-325h3q23 33 53 72l206 253h108l-244 -286l263 -388h-103l-222 331l-64 -74v-257h-87z"/>
<glyph glyph-name="Lambda" horiz-adv-x="609" unicode="Λ" d="M590 0h-94l-156 464q-16 50 -35 128h-3q-19 -79 -33 -127l-153 -465h-91l229 674h104z"/>
<glyph glyph-name="Mu" horiz-adv-x="804" unicode="Μ" d="M661 0l-17 296q-10 174 -10 272v19h-3q-34 -115 -85 -256l-119 -327h-66l-109 321q-53 159 -78 262h-2q-3 -132 -13 -298l-18 -289h-83l47 674h111l115 -326q46 -136 68 -227h3q22 89 71 227l120 326h111l42 -674h-85z"/>
<glyph glyph-name="Nu" horiz-adv-x="658" unicode="Ν" d="M158 0h-82v674h95l216 -341q73 -115 121 -219l2 1q-10 113 -10 277v282h82v-674h-88l-214 342q-83 132 -126 225l-3 -1q7 -119 7 -278v-288z"/>
<glyph glyph-name="Xi" horiz-adv-x="540" unicode="Ξ" d="M43 73h462v-73h-462v73zM87 385h374v-72h-374v72zM54 674h441v-72h-441v72z"/>
<glyph glyph-name="Omicron" horiz-adv-x="689" unicode="Ο" d="M345 614q-103 0 -159.5 -81.5t-56.5 -199.5q0 -113 58 -193t157 -80q100 0 158 80t58 200q0 110 -56.5 192t-158.5 82zM349 685q137 0 220 -95t83 -246q0 -168 -89 -261.5t-224 -93.5q-134 0 -218.5 95t-84.5 247q0 159 88 256.5t225 97.5z"/>
<glyph glyph-name="Pi" horiz-adv-x="634" unicode="Π" d="M558 674v-674h-88v600h-307v-600h-87v674h482z"/>
<glyph glyph-name="Rho" horiz-adv-x="532" unicode="Ρ" d="M163 603v-262q27 -7 72 -7q80 0 124.5 37.5t44.5 106.5q0 65 -42.5 98.5t-116.5 33.5q-56 0 -82 -7zM76 0v666q78 13 167 13q127 0 189 -56q59 -51 59 -141t-52 -144q-69 -74 -206 -74q-46 0 -70 6v-270h-87z"/>
<glyph glyph-name="Sigma" horiz-adv-x="552" unicode="Σ" d="M140 76v-3h384v-73h-498v52l234 283l-221 280v59h453v-72h-341v-4l206 -260z"/>
<glyph glyph-name="Tau" horiz-adv-x="497" unicode="Τ" d="M204 0v600h-205v74h499v-74h-206v-600h-88z"/>
<glyph glyph-name="Upsilon" horiz-adv-x="588" unicode="Υ" d="M10 609l16 71q37 -2 84 -27t80 -64q87 -97 104 -247h4q22 140 117 245q35 37 77.5 62.5t76.5 30.5l15 -71q-66 -25 -133 -102t-98 -196q-19 -76 -19 -138v-173h-87v174q0 72 -14 136q-28 129 -89.5 206t-133.5 93z"/>
<glyph glyph-name="Phi" horiz-adv-x="718" unicode="Φ" d="M401 587v-498q78 7 134.5 72.5t56.5 174.5q0 113 -56.5 178.5t-134.5 72.5zM317 89v498q-73 -5 -132 -72t-59 -180q0 -105 56 -170.5t135 -75.5zM400 26v-52h-84v52q-115 10 -197.5 88.5t-82.5 218.5q0 143 86.5 225.5t195.5 91.5v50h84v-50q115 -9 197.5 -90.5 t82.5 -221.5q0 -72 -24 -131t-64 -96t-89.5 -58.5t-104.5 -26.5z"/>
<glyph glyph-name="Chi" horiz-adv-x="571" unicode="Χ" d="M546 0h-101l-86 149q-52 84 -78 133h-2q-30 -61 -73 -134l-81 -148h-100l206 341l-198 333h101l89 -158q42 -73 62 -114h3q24 50 61 114l92 158h100l-205 -328z"/>
<glyph glyph-name="Psi" horiz-adv-x="685" unicode="Ψ" d="M639 674v-195q0 -127 -69.5 -197t-185.5 -76v-206h-83v206q-51 2 -95 16.5t-80.5 43t-57.5 76.5t-21 112v220h85v-205q0 -185 170 -194v399h82v-400q74 4 121.5 55t47.5 159v186h86z"/>
<glyph glyph-name="alpha" horiz-adv-x="551" unicode="α" d="M127 235q0 -73 35.5 -124.5t95.5 -51.5q44 0 80.5 36.5t48.5 86.5q6 26 6 68q0 35 -4 52q-9 51 -43.5 87.5t-80.5 36.5q-61 0 -99.5 -54t-38.5 -137zM416 484h73q-13 -133 -13 -346q0 -43 11.5 -62t36.5 -20l-7 -63q-8 -4 -30 -4q-76 0 -83 102h-3q-56 -102 -165 -102 q-87 0 -142.5 67t-55.5 176q0 115 64.5 189t151.5 74q52 0 90.5 -25.5t58.5 -71.5h4q2 47 9 86z"/>
<glyph glyph-name="beta" horiz-adv-x="560" unicode="β" d="M156 443v-306q20 -32 57 -56t84 -24q60 0 98.5 39.5t38.5 99.5q0 69 -43.5 107.5t-112.5 40.5h-27v60q5 0 17 2q54 4 84 40.5t30 87.5q0 53 -28.5 85t-73.5 32q-124 0 -124 -208zM159 50h-2v-67q0 -136 11 -181h-82q-15 40 -15 170v461q0 164 75 235q56 53 142 53 q75 0 125 -48.5t50 -125.5q0 -54 -26 -95.5t-63 -60.5v-4q62 -13 105 -63t43 -128q0 -96 -62 -151.5t-147 -55.5q-96 0 -154 61z"/>
<glyph glyph-name="gamma" horiz-adv-x="464" unicode="γ" d="M269 -198h-86q2 58 2 88q0 114 -20 196q-24 108 -74.5 217.5t-96.5 180.5h99q37 -56 81.5 -165t65.5 -212h4q114 210 114 343q0 8 -0.5 19t-0.5 15h83q3 -14 3 -33q0 -166 -171 -425q-6 -8 -6 -24q3 -57 3 -200z"/>
<glyph glyph-name="delta" horiz-adv-x="546" unicode="δ" d="M326 402l-53 42q-146 -77 -146 -211q0 -81 45 -129.5t106 -48.5q60 0 101 47.5t41 127.5q0 99 -94 172zM466 673l-26 -58q-20 14 -57.5 27t-74.5 13q-39 0 -60.5 -13t-21.5 -32q0 -24 61 -72q7 -6 11 -9l82 -66q128 -98 128 -227q0 -110 -67.5 -178.5t-167.5 -68.5 q-98 0 -166.5 65.5t-68.5 177.5q0 87 51 150.5t133 102.5v5l-23 18q-61 50 -61 100q0 45 44.5 79t123.5 34q49 0 92.5 -14.5t67.5 -33.5z"/>
<glyph glyph-name="epsilon" horiz-adv-x="440" unicode="ε" d="M404 93l16 -60q-28 -19 -77.5 -31.5t-99.5 -12.5q-84 0 -144 36t-60 111q0 45 33.5 79t86.5 42v5q-47 10 -71.5 37.5t-24.5 64.5q0 52 51 91.5t142 39.5q93 0 147 -37l-19 -58q-17 11 -52 20.5t-69 9.5q-51 0 -81.5 -19.5t-30.5 -52.5q0 -34 37.5 -51.5t97.5 -17.5h58 v-63h-61q-69 0 -110.5 -20t-41.5 -62q0 -41 37.5 -64.5t93.5 -23.5q37 0 77.5 11.5t64.5 25.5z"/>
<glyph glyph-name="zeta" horiz-adv-x="409" unicode="ζ" d="M341 -143l-58 17q10 17 20.5 53.5t12.5 56.5q-62 9 -118 27q-159 52 -159 223q0 107 65.5 218.5t178.5 188.5v4h-71q-78 0 -116 10l9 59q32 -4 122 -4h167l13 -61q-120 -61 -199.5 -175t-79.5 -224q0 -75 32 -115t92 -62q54 -20 140 -29q9 -2 9 -12q0 -41 -19 -94 t-41 -81z"/>
<glyph glyph-name="eta" horiz-adv-x="555" unicode="η" d="M161 0h-88v353q0 89 -14 131h79q14 -30 14 -80h2q20 38 62 64.5t98 26.5q28 0 55.5 -9.5t54.5 -31t44 -64t17 -101.5v-307q0 -140 10 -180h-83q-15 37 -15 177v300q0 64 -27 103.5t-85 39.5q-42 0 -74 -26t-44 -64q-6 -16 -6 -41v-291z"/>
<glyph glyph-name="theta" horiz-adv-x="534" unicode="θ" d="M410 333h-285q0 -131 40 -205t106 -74q68 0 103.5 76t35.5 203zM125 399h285q-1 113 -37.5 185t-105.5 72q-64 0 -103 -75t-39 -182zM269 -11q-109 0 -170 95t-61 277q0 158 62 259t172 101q112 0 168.5 -96.5t56.5 -263.5q0 -174 -57.5 -273t-170.5 -99z"/>
<glyph glyph-name="iota" horiz-adv-x="236" unicode="ι" d="M161 484v-367q0 -32 9 -45.5t33 -13.5h5l-5 -64q-17 -5 -40 -5q-43 0 -66.5 26t-23.5 93v376h88z"/>
<glyph glyph-name="kappa" horiz-adv-x="493" unicode="κ" d="M161 0h-88v379q0 80 -11 105h85q14 -19 14 -82v-133h4q39 37 77 75.5t78 80.5t57 59h103v-4q-37 -35 -116 -110t-114 -108v-3q54 -12 149 -138l88 -121h-102l-76 103q-85 111 -140 112h-8v-215z"/>
<glyph glyph-name="lambda" horiz-adv-x="472" unicode="λ" d="M364 0l-98 277q-22 66 -32 105h-5q-6 -26 -31 -102l-99 -280h-92l175 448q6 16 6 23q0 10 -7 27q-27 73 -56 112.5t-70 39.5q-11 0 -17 -1l8 68q11 4 34 4q66 0 106.5 -55t85.5 -174l185 -492h-93z"/>
<glyph glyph-name="uni03BC" horiz-adv-x="553" unicode="μ" d="M403 75h-3q-18 -34 -54 -59t-85 -25q-76 0 -106 53v-60q0 -138 11 -182h-79q-14 42 -14 178v504h87v-286q0 -60 27 -98.5t82 -38.5q41 0 72 24t44 57q8 21 8 45v297h87v-351q0 -40 10 -57.5t36 -18.5l-7 -64q-13 -4 -30 -4q-75 0 -86 86z"/>
<glyph glyph-name="nu" horiz-adv-x="469" unicode="ν" d="M4 484h93l93 -272q7 -19 14 -40t15 -46.5t13 -39.5h3q125 244 125 353q0 31 -1 45h83q3 -30 3 -36q0 -64 -29.5 -147.5t-63 -146t-88.5 -154.5h-83z"/>
<glyph glyph-name="xi" horiz-adv-x="433" unicode="ξ" d="M361 435v-64h-27q-100 0 -152 -42.5t-52 -108.5q0 -59 38.5 -95.5t115.5 -56.5q40 -11 133 -25q9 0 9 -11q0 -38 -19 -93t-40 -82l-58 17q10 17 20.5 54t11.5 56q-47 7 -83.5 15t-80 25t-72 40t-48 61t-19.5 87q0 71 44.5 123.5t112.5 71.5v5q-55 17 -83 54t-28 87 q0 68 55 118t154 50q76 0 122 -27l-18 -61q-42 23 -99 23q-60 0 -93 -32t-33 -77q0 -51 39.5 -80.5t101.5 -31.5h48z"/>
<glyph glyph-name="omicron" horiz-adv-x="549" unicode="ο" d="M276 429q-73 0 -111 -55.5t-38 -132.5q0 -80 41.5 -133t105.5 -53q63 0 105 53.5t42 134.5q0 44 -14 84.5t-48 71t-83 30.5zM278 495q104 0 168.5 -69t64.5 -180q0 -125 -71.5 -191t-169.5 -66q-100 0 -166 68t-66 181q0 118 68 187.5t172 69.5z"/>
<glyph glyph-name="pi" horiz-adv-x="555" unicode="π" d="M520 415h-67v-271q0 -94 14 -144h-85q-15 28 -15 135v280h-159q-3 -102 -23 -230t-45 -185h-84q26 69 45.5 191.5t22.5 223.5q-67 0 -99 -9l-12 52q38 26 139 26h378z"/>
<glyph glyph-name="rho" horiz-adv-x="563" unicode="ρ" d="M155 231v-41q0 -20 4 -35q12 -42 48.5 -69.5t82.5 -27.5q68 0 107.5 52.5t39.5 136.5q0 74 -37.5 124.5t-102.5 50.5q-58 0 -100 -48.5t-42 -142.5zM163 -198h-84q-11 37 -11 176v224q0 147 70 221q67 72 166 72q100 0 160.5 -68t60.5 -178q0 -122 -65 -191t-156 -69 q-48 0 -86.5 18.5t-59.5 52.5h-3v-78q0 -134 8 -180z"/>
<glyph glyph-name="uni03C2" horiz-adv-x="417" unicode="ς" d="M408 473l-20 -64q-43 18 -89 18q-76 0 -124 -54t-48 -131q0 -131 137 -172q54 -15 129 -26q10 -3 10 -15q0 -40 -18.5 -93.5t-39.5 -79.5l-59 18q10 16 20.5 53t12.5 56q-64 12 -99 21q-82 24 -132 81t-50 149q0 105 70.5 183t190.5 78q70 0 109 -22z"/>
<glyph glyph-name="sigma" horiz-adv-x="554" unicode="σ" d="M272 55q60 0 101.5 54t41.5 136q0 71 -36.5 127.5t-105.5 56.5q-71 0 -108.5 -56t-37.5 -132q0 -80 41 -133t104 -53zM542 495l-3 -67q-32 0 -127 4v-4q42 -29 66 -78.5t24 -104.5q0 -124 -70 -190t-162 -66q-100 0 -166 68t-66 180q0 119 68.5 188t180.5 70h255z"/>
<glyph glyph-name="tau" horiz-adv-x="413" unicode="τ" d="M321 60l-4 -63q-16 -8 -48 -8q-58 0 -85 36.5t-27 113.5v276h-53q-56 0 -98 -8l-12 51q37 26 132 26h279l-11 -69h-150v-274q0 -82 56 -82q15 0 21 1z"/>
<glyph glyph-name="upsilon" horiz-adv-x="524" unicode="υ" d="M360 484h82q14 -26 25 -79.5t11 -109.5q0 -58 -10.5 -108.5t-34 -97t-68.5 -73.5t-108 -27q-84 0 -137 50t-53 145v137q0 130 -11 163h84q14 -17 14 -91v-197q0 -67 32.5 -100.5t77.5 -33.5q62 0 95 59.5t33 165.5q0 60 -10.5 116.5t-21.5 80.5z"/>
<glyph glyph-name="phi" horiz-adv-x="642" unicode="φ" d="M363 362v-308q72 10 114 63t42 136q0 72 -35.5 124.5t-78.5 52.5q-42 0 -42 -68zM204 495l34 -49q-113 -71 -113 -200q0 -75 40.5 -127.5t116.5 -64.5v294q0 74 34.5 110t88.5 36q76 0 137 -66.5t61 -172.5q0 -117 -70 -186t-170 -79v-188h-81v188q-47 4 -89 20.5 t-77.5 46t-56.5 78t-21 109.5q0 94 52 159.5t114 91.5z"/>
<glyph glyph-name="chi" horiz-adv-x="457" unicode="χ" d="M18 484h94l123 -261h4q23 52 51 107l72 154h86l-171 -327l176 -348l-82 -22l-144 296h-4q-1 -3 -18 -41.5t-28 -61.5l-91 -193l-75 23l173 346z"/>
<glyph glyph-name="psi" horiz-adv-x="655" unicode="ψ" d="M295 -198v187q-228 15 -228 251v131q0 84 -8 113h81q12 -16 12 -91v-145q0 -99 40 -145t104 -50v558h80v-558q66 3 107.5 66.5t41.5 166.5q0 67 -12 122.5t-24 75.5h81q39 -62 39 -191q0 -57 -12.5 -107.5t-39 -94.5t-73 -71.5t-108.5 -30.5v-187h-81z"/>
<glyph glyph-name="endash" horiz-adv-x="500" unicode="–" d="M30 284h440v-60h-440v60z"/>
<glyph glyph-name="emdash" horiz-adv-x="1000" unicode="—" d="M30 284h940v-60h-940v60z"/>
<glyph glyph-name="quoteleft" horiz-adv-x="207" unicode="‘" d="M125 451l-90 -10q17 62 44.5 132.5t48.5 105.5l56 6q-41 -114 -59 -234z"/>
<glyph glyph-name="quotesinglbase" horiz-adv-x="207" unicode="‚" d="M76 -111l-55 -7q41 116 58 234l91 10q-17 -62 -45 -132t-49 -105z"/>
<glyph glyph-name="quotedblleft" horiz-adv-x="354" unicode="“" d="M273 451l-90 -10q16 61 44 131.5t49 106.5l56 6q-39 -106 -59 -234zM125 451l-91 -10q17 63 45 133t49 105l56 6q-39 -106 -59 -234z"/>
<glyph glyph-name="quotedblright" horiz-adv-x="354" unicode="”" d="M241 676l90 8q-40 -145 -93 -236l-56 -7q39 105 59 235zM93 676l90 8q-40 -145 -93 -236l-56 -7q40 114 59 235z"/>
<glyph glyph-name="dagger" horiz-adv-x="500" unicode="†" d="M209 674h82l-8 -211l174 7v-72l-174 8l8 -456h-82l8 456l-174 -8v72l174 -7z"/>
<glyph glyph-name="daggerdbl" horiz-adv-x="500" unicode="‡" d="M210 674h81l-7 -201l173 8v-72l-173 7v-204l173 8v-72l-173 7l7 -205h-81l5 205l-172 -7v72l173 -8v204l-173 -7v72l173 -8z"/>
<glyph glyph-name="ellipsis" horiz-adv-x="1000" unicode="…" d="M833 -11q-26 0 -42.5 18t-16.5 45q0 28 17 45.5t43 17.5t42.5 -17.5t16.5 -45.5t-16.5 -45.5t-43.5 -17.5zM500 -11q-26 0 -43 18t-16 45q0 28 17 45.5t43 17.5t42 -17.5t17 -45.5q0 -27 -16.5 -45t-43.5 -18zM167 -11q-26 0 -43 18t-16 45q0 28 16.5 45.5t42.5 17.5 q27 0 43 -17.5t16 -45.5q0 -27 -16 -45t-43 -18z"/>
<glyph glyph-name="perthousand" horiz-adv-x="1156" unicode="‰" d="M232 -11h-56l382 672h56zM184 608q-40 0 -62 -41.5t-22 -105.5v-8q0 -61 22.5 -99.5t61.5 -38.5q42 0 63 40t21 108q0 64 -20.5 104.5t-63.5 40.5zM187 661q69 0 110 -51t41 -143q0 -98 -44.5 -151.5t-111.5 -53.5q-64 0 -107.5 51t-44.5 145q0 94 45 148.5t112 54.5z M973 339q-40 0 -62.5 -41.5t-22.5 -105.5v-8q0 -61 22.5 -99.5t61.5 -38.5q42 0 63 40t21 108q0 65 -20 105t-63 40zM975 392q69 0 110 -51t41 -143q0 -98 -44.5 -151.5t-111.5 -53.5q-64 0 -107.5 51t-44.5 144q0 95 45 149.5t112 54.5zM608 339q-41 0 -63 -42.5 t-22 -108.5q0 -62 22.5 -102t62.5 -40q42 0 63 40t21 108q0 64 -20.5 104.5t-63.5 40.5zM611 392q69 0 109.5 -51t40.5 -143q0 -98 -44.5 -151.5t-110.5 -53.5q-64 0 -107.5 51t-44.5 144q0 95 45 149.5t112 54.5z"/>
<glyph glyph-name="guilsinglleft" horiz-adv-x="255" unicode="‹" d="M232 436l-134 -184l134 -184h-71l-132 184l132 184h71z"/>
<glyph glyph-name="guilsinglright" horiz-adv-x="255" unicode="›" d="M157 252l-134 184h70l134 -184l-133 -184h-71z"/>
<glyph glyph-name="fraction" horiz-adv-x="121" unicode="⁄" d="M-101 -11h-56l379 672h57z"/>
<glyph glyph-name="Euro" d="M479 94l17 -63q-62 -42 -149 -42q-126 0 -203 89q-59 65 -72 172h-62v49h57v15q0 17 2 45h-59v50h66q18 103 82 169q80 83 198 83q73 0 133 -32l-20 -66q-47 28 -112 28q-80 0 -132 -55q-44 -43 -60 -127h279v-50h-288q-2 -26 -2 -42v-18h290v-49h-283q11 -83 55 -131 q55 -58 141 -58q64 0 122 33z" unicode="€"/>
<glyph glyph-name="trademark" horiz-adv-x="619" unicode="™" d="M606 402h-54l-10 160q-1 11 -1.5 37t-0.5 39h-3q-2 -7 -10 -37t-13 -44l-49 -151h-56l-49 155q-5 21 -19 77h-3q0 -26 -2 -76l-10 -160h-52l20 272h81l47 -133q6 -21 18 -69h1q2 9 6 23t7 25t6 20l47 134h78zM30 674h228v-45h-87v-227h-54v227h-87v45z"/>
<glyph glyph-name="partialdiff" horiz-adv-x="530" unicode="∂" d="M232 61q65 0 111 63t57 153q-15 40 -53.5 68t-87.5 28q-60 0 -102.5 -49.5t-42.5 -122.5q0 -65 32.5 -102.5t85.5 -37.5zM86 614l-28 59q73 53 173 53q110 0 186.5 -94.5t76.5 -259.5q0 -181 -78 -282t-191 -101q-95 0 -147 62t-52 148q0 102 63.5 173t155.5 71 q57 0 101 -26.5t62 -60.5h1q1 10 1 33q0 125 -55.5 195t-131.5 70q-80 0 -137 -40z"/>
<glyph glyph-name="product" horiz-adv-x="615" unicode="∏" d="M605 577h-93v-667h-83v667h-244v-667h-83v667h-93v73h596v-73z"/>
<glyph glyph-name="summation" horiz-adv-x="507" unicode="∑" d="M514 -90h-505v52l251 316l-238 313v59h461v-72h-349v-4l222 -293l-234 -295v-3h392v-73z"/>
<glyph glyph-name="minus" horiz-adv-x="596" unicode="−" d="M40 297h516v-60h-516v60z"/>
<glyph glyph-name="radical" horiz-adv-x="562" unicode="√" d="M579 827l-230 -922h-64l-159 428l-75 -32l-19 47l138 58l123 -346q12 -32 19 -64h2q6 35 13 65l186 766h66z"/>
<glyph glyph-name="infinity" horiz-adv-x="728" unicode="∞" d="M183 176q26 0 55 16t43.5 30t42.5 42q-6 6 -23 22.5t-26.5 24.5t-25 19.5t-31 16.5t-32.5 5q-37 0 -62.5 -26t-25.5 -62q0 -38 24 -63t61 -25zM542 176q37 0 62.5 26t25.5 62q0 38 -24 63t-61 25q-26 0 -55 -16t-43.5 -30t-42.5 -42q6 -6 23 -22.5t26.5 -24.5t25 -19.5 t31 -16.5t32.5 -5zM541 116q-26 0 -50 8t-50.5 29t-37 31t-39.5 39q-28 -28 -40.5 -39.5t-39 -31.5t-51.5 -28t-54 -8q-63 0 -103.5 41.5t-40.5 106.5q0 60 43.5 104t108.5 44q26 0 50 -8t50.5 -29t37 -31t39.5 -39q28 28 40.5 39.5t39 31.5t51.5 28t54 8q64 0 104 -41.5 t40 -106.5q0 -60 -43.5 -104t-108.5 -44z"/>
<glyph glyph-name="approxequal" horiz-adv-x="596" unicode="≈" d="M538 218l36 -40q-26 -33 -67.5 -56t-85.5 -23q-20 0 -40 4t-31.5 8.5t-30.5 13t-25 10.5t-23 10t-27.5 12t-28.5 8t-36 4q-62 0 -117 -59l-34 43q25 31 66.5 53.5t85.5 22.5q21 0 42 -4.5t30 -7.5t32 -13.5t24 -10.5q6 -3 22.5 -10.5t27.5 -11.5t28.5 -8t34.5 -4 q33 0 64.5 17.5t52.5 41.5zM533 416l37 -41q-26 -33 -67 -55.5t-85 -22.5q-17 0 -32 2t-29.5 7t-23.5 8.5t-24 10.5t-19 9q-6 2 -22.5 10t-27.5 12t-29 8t-35 4q-61 0 -118 -59l-35 42q27 32 68 54.5t85 22.5q21 0 41 -4t31.5 -8.5t30.5 -13t25 -10.5q3 -2 22 -10.5t28 -12 t27 -7.5t36 -4q60 0 116 58z"/>
<glyph glyph-name="notequal" horiz-adv-x="596" unicode="≠" d="M556 140h-310l-76 -122h-65l79 122h-144v60h182l89 138h-271v60h309l76 122h65l-79 -122h145v-60h-183l-88 -138h271v-60z"/>
<glyph glyph-name="lessequal" horiz-adv-x="596" unicode="≤" d="M530 0h-462v58h462v-58zM530 99l-464 193v59l464 192v-66l-382 -155v-2l382 -154v-67z"/>
<glyph glyph-name="greaterequal" horiz-adv-x="596" unicode="≥" d="M528 0h-462v58h462v-58zM530 292l-464 -193v67l382 154v2l-382 155v66l464 -192v-59z"/>
<glyph glyph-name="lozenge" horiz-adv-x="522" unicode="◊" d="M401 323l-130 267q-5 8 -11 23h-2q-3 -13 -10 -23l-128 -264l131 -266l5 -10q4 -9 5 -13h2q1 3 5 11t5 12zM477 325l-182 -356h-69l-181 356l181 355h69z"/>
</font>
</defs>
</svg>
